The.Blacklist.S03E18 | good reggae music, | Das Geheimnis der Hunters

Скачать через торрент Бегущий по лезвию 2049 в 3Д Blade Runner 2049 3D Фильм бесплатно в хорошем качестве torrent

Скачивайте на UnionPeer.org фильмы через торрент без регистрации. Новинки кино в хорошем качестве через торрент. На UnionPeer.org можно скачать через торрент фильмы 2014 и 2015 годов. Самые новые фильмы.

Скачать торрент Бегущий по лезвию 2049 в 3Д Blade Runner 2049 3D бесплатно через .torrent фильм мультфильм сериал

Статистика раздачи
Размер:  16.74 GB   |    Зарегистрирован:  6 месяцев   |    .torrent скачан:  100 раз   |   
Раздают:  2  
   
загрузка...
 
Автор Сообщение

Galfimbul

avatar Galfimbul


Бегущий по лезвию 2049 / Blade Runner 2049

Год выпуска: 2017
Страна: США, Великобритания, Венгрия, Канада (Columbia Pictures, Alcon Entertainment, Scott Free Productions, Warner Bros. Pictures)
Жанр: Фантастика, Триллер, Драма, Детектив
Продолжительность: 02:43:27

Перевод: Профессиональный дублированный(лицензия)
Русские субтитры: нет
Режиссер на русском: Дени Вильнёв / Denis Villeneuve

В ролях: Райан Гослинг, Харрисон Форд, Ана де Армас, Сильвия Хукс, Робин Райт, Маккензи Дэвис, Карла Юри, Ленни Джеймс, Дэйв Батиста, Джаред Лето

Описание: В недалеком будущем мир населен людьми и репликантами, созданными выполнять самую тяжелую работу. Работа офицера полиции Кей — держать репликантов под контролем в условиях нарастающего напряжения… Пока он случайно не становится обладателем секретной информации, которая ставит под угрозу существование всего человечества. Желая найти ключ к разгадке, Кей решает разыскать Рика Декарда, бывшего офицера специального подразделения полиции Лос-Анджелеса, который бесследно исчез много лет назад.

Сэмпл: http://sendfile.su/1390511

Качество: BDrip
Контейнер: MKV
Формат 3D: OverUnder / Вертикальная стереопара
Порядок ракурсов: левый ракурс первый
Видео кодек: x264
Аудио кодек: AC3
Видео: AVC / [email protected] / 23,976 fps / 1920х2160 / 13,1 Мбит/сек
Аудио: Русский / AC3 / 48 KHz / 5.1 ch / 640 Кбит/сек(лицензия)
Аудио 2: Английский / AC3 / 48 KHz / 5.1 ch / 640 Кбит/сек

ВНИМАНИЕ ! На встроенных ТВ-плеерах работать не будет!!!
ТВ Samsung в названии которого есть надпись Ultra HD , и LG Ultra HD 800 серии, LG C6P, Xiaomi Mi TV 2 воспроизводят полные стереопары встроенными плеерами
Железные плееры на которых воспроизводятся полные стереопары:Popcorn C-200 , Dune HD Smart D1 , Dune HD DUO , Dune HD Smart H1 , Dune HD Smart B1 , Dune HD Max , Dune HD TV-303D , Dune HD Base 3D, Philips HMP7001, Aura HD, MECOOL BB2
Чтобы изображение было на весь экран в плеере выставляем, если рип 1920х1600 - то выставляем 2.35:1 , если 1920х2160 - то выставляем 16:9

10.01.2018. Релиз обновлён - видео дорога заменена на другую с лучшим качеством.
Желающие, скачайте заново торрент-файл.
Общее
Уникальный идентификатор : 208599522870994309486293672902577804286 (0x9CEECE870D0A610B84F2D18C7F46D3FE)
Полное имя : E:\закачки\Blade Runner 2049.Rip by SeRoGa00.mkv
Формат : Matroska
Версия формата : Version 2
Размер файла : 16,7 Гбайт
Продолжительность : 2 ч. 43 м.
Общий поток : 14,7 Мбит/сек
Дата кодирования : UTC 2018-01-10 13:07:22
Программа кодирования : mkvmerge v3.4.0 ('Rapunzel') сборка от May 15 2010 09:38:20
Библиотека кодирования : libebml v0.8.0 + libmatroska v0.9.0

Видео
Идентификатор : 1
Формат : AVC
Формат/Информация : Advanced Video Codec
Профиль формата : [email protected]
Параметр CABAC формата : Да
Параметр ReFrames формата : 4 кадра
Идентификатор кодека : V_MPEG4/ISO/AVC
Продолжительность : 2 ч. 43 м.
Битрейт : 13,1 Мбит/сек
Ширина : 1920 пикселей
Высота : 2160 пикселей
Соотношение сторон : 0,889
Частота кадров : 23,976 кадра/сек
Цветовое пространство : YUV
Субдискретизация насыщенности : 4:2:0
Битовая глубина : 8 бит
Тип развёртки : Прогрессивная
Бит/(Пиксели*Кадры) : 0.132
Размер потока : 14,9 Гбайт (89%)
Заголовок : Rip by SeRoGa00
Библиотека кодирования : x264 core 148 r2762 90a61ec
Настройки программы : cabac=1 / ref=4 / deblock=1:-3:-3 / analyse=0x3:0x113 / me=umh / subme=10 / psy=1 / psy_rd=1.00:0.15 / mixed_ref=1 / me_range=24 / chroma_me=1 / trellis=2 / 8x8dct=1 / cqm=0 / deadzone=21,11 / fast_pskip=1 / chroma_qp_offset=-3 / threads=9 / lookahead_threads=2 / sliced_threads=0 / nr=0 / decimate=1 / interlaced=0 / bluray_compat=0 / constrained_intra=0 / bframes=10 / b_pyramid=2 / b_adapt=2 / b_bias=0 / direct=3 / weightb=1 / open_gop=0 / weightp=2 / keyint=250 / keyint_min=23 / scenecut=40 / intra_refresh=0 / rc_lookahead=60 / rc=crf / mbtree=1 / crf=15.0 / qcomp=0.60 / qpmin=10 / qpmax=69 / qpstep=4 / vbv_maxrate=40000 / vbv_bufsize=40000 / crf_max=0.0 / nal_hrd=none / filler=0 / ip_ratio=1.40 / aq=1:1.00
Язык : English
Default : Нет
Forced : Нет

Аудио #1
Идентификатор : 2
Формат : AC-3
Формат/Информация : Audio Coding 3
Расширение режима : CM (complete main)
Параметр Endianness формата : Big
Идентификатор кодека : A_AC3
Продолжительность : 2 ч. 43 м.
Вид битрейта : Постоянный
Битрейт : 640 Кбит/сек
Каналы : 6 каналов
Расположение каналов : Front: L C R, Side: L R, LFE
Частота : 48,0 КГц
Битовая глубина : 16 бит
Метод сжатия : С потерями
Размер потока : 748 Мбайт (4%)
Язык : Russian
Default : Да
Forced : Нет

Аудио #2
Идентификатор : 3
Формат : AC-3
Формат/Информация : Audio Coding 3
Расширение режима : CM (complete main)
Параметр Endianness формата : Big
Идентификатор кодека : A_AC3
Продолжительность : 2 ч. 43 м.
Вид битрейта : Постоянный
Битрейт : 640 Кбит/сек
Каналы : 6 каналов
Расположение каналов : Front: L C R, Side: L R, LFE
Частота : 48,0 КГц
Битовая глубина : 16 бит
Метод сжатия : С потерями
Размер потока : 748 Мбайт (4%)
Язык : English
Default : Нет
Forced : Нет


Трекер:  [ 04-Фев-2018 14:30 ]

  

Скачать .torrent

Размер .torrent файла 84 KB


Размер: 16.74 GB
Хэш (hash) релиза: ac52677d2a7750b3991666dce912ac390d43a902
Подписка на обновления:

Торренты, похожие на Бегущий по лезвию 2049 в 3Д Blade Runner 2049 3D скачать торрент

Форум Название Автор Размер S L Добавлен
3D Фильмы, кино ·· Бегущий по лезвию 2049 в 3Д / Blade Runner 2049 3D (Дени Вильнёв/ Denis Villeneuve) [2017, Фантастика, триллер, BDRemux, 1080p] BD3D Galfimbul 4724890009644 GB 0 0 1517744016

14:33

4-Фев-18

3D Фильмы, кино ·· Бегущий по лезвию 2049 в 3Д / Blade Runner 2049 3D (Дени Вильнёв / Denis Villeneuve) [2017, Фантастика, триллер, BDremux, 1080p] BD3D Galfimbul 4402020352041 GB 0 0 1517739015

13:10

4-Фев-18

Еще никто не оставлял запись к записи скачать торрент Бегущий по лезвию 2049 в 3Д Blade Runner 2049 3D . Будь первым!

!Обратная связь