Lil Pump
The Eagleman Stag

Скачать через торрент Снежная королева 3. Огонь и лед в 3Д The Snow Queen 3: Fire and Ice 3D Фильм бесплатно в хорошем качестве torrent

Скачивайте на UnionPeer.org фильмы через торрент без регистрации. Новинки кино в хорошем качестве через торрент. На UnionPeer.org можно скачать через торрент фильмы 2014 и 2015 годов. Самые новые фильмы.

Скачать торрент Снежная королева 3. Огонь и лед в 3Д The Snow Queen 3: Fire and Ice 3D бесплатно через .torrent фильм мультфильм сериал

Статистика раздачи
Размер:  7.11 GB   |    Зарегистрирован:  2 месяца 16 дней   |    .torrent скачан:  22 раза   |   
Раздают:  1  
   
загрузка...
 
Автор Сообщение

Galfimbul

avatar Galfimbul


Снежная королева 3. Огонь и лед / The Snow Queen 3: Fire and Ice

Год выпуска: 2016
Страна: Россия ( Wizart Animation, Фонд Кино)
Жанр: Мультфильм, Комедия, Приключения, Семейный
Продолжительность: 01:29:10

Перевод: Не требуется
Русские субтитры: нет
Режиссер: Алексей Цицилин / Aleksey Tsitsilin

Роли озвучивали: Наталия Быстрова, Филипп Лебедев, Диомид Виноградов, Александр Груздев, Михаил Тихонов, Николай Быстров, Ольга Шорохова, Ольга Зубкова, Всеволод Кузнецов, Филл Савенков
Описание: Редкий дар ввязываться во всевозможные неприятности — их семейная черта, да и что взять с тех, кто вырос среди снегов в компании троллей. Но повзрослев, Кай и Герда выходят на новый уровень — теперь они станут виновниками катастрофы мирового масштаба…

Сэмпл: http://sendfile.su/1380404

Качество: BDrip
Контейнер: MKV
Формат 3D: OverUnder / Вертикальная стереопара
Порядок ракурсов: левый ракурс первый
Видео кодек: x264
Аудио кодек: AC3
Видео: AVC / [email protected] / 23,976 fps / 1920х2160 / 10,2 Мбит/сек
Аудио: Русский / AC3 / 48 KHz / 5.1 ch / 384 Кбит/сек(iTunes)
Аудио 2: Английский / AC3 / 48 KHz / 5.1 ch / 640 Кбит/сек

ВНИМАНИЕ ! На встроенных ТВ-плеерах работать не будет!!!
ТВ Samsung в названии которого есть надпись Ultra HD , и LG Ultra HD 800 серии, LG C6P, Xiaomi Mi TV 2 воспроизводят полные стереопары встроенными плеерами
Железные плееры на которых воспроизводятся полные стереопары:Popcorn C-200 , Dune HD Smart D1 , Dune HD DUO , Dune HD Smart H1 , Dune HD Smart B1 , Dune HD Max , Dune HD TV-303D , Dune HD Base 3D, Philips HMP7001, Aura HD, MECOOL BB2
Чтобы изображение было на весь экран в плеере выставляем, если рип 1920х1600 - то выставляем 2.35:1 , если 1920х2160 - то выставляем 16:9
Общее
Уникальный идентификатор : 234259404347712897732623818498698453985 (0xB03CB85C53088C9BA4EA488383CD23E1)
Полное имя : E:\закачки\The Snow Queen 3 Fire and Ice.Rip by SeRoGa00.mkv
Формат : Matroska
Версия формата : Version 2
Размер файла : 7,11 Гбайт
Продолжительность : 1 ч. 29 м.
Общий поток : 11,4 Мбит/сек
Дата кодирования : UTC 2017-11-26 13:25:27
Программа кодирования : mkvmerge v3.4.0 ('Rapunzel') сборка от May 15 2010 09:38:20
Библиотека кодирования : libebml v0.8.0 + libmatroska v0.9.0

Видео
Идентификатор : 1
Формат : AVC
Формат/Информация : Advanced Video Codec
Профиль формата : [email protected]
Параметр CABAC формата : Да
Параметр ReFrames формата : 4 кадра
Идентификатор кодека : V_MPEG4/ISO/AVC
Продолжительность : 1 ч. 29 м.
Битрейт : 10,2 Мбит/сек
Ширина : 1920 пикселей
Высота : 2160 пикселей
Соотношение сторон : 0,889
Частота кадров : 23,976 кадра/сек
Цветовое пространство : YUV
Субдискретизация насыщенности : 4:2:0
Битовая глубина : 8 бит
Тип развёртки : Прогрессивная
Бит/(Пиксели*Кадры) : 0.102
Размер потока : 6,33 Гбайт (89%)
Заголовок : Rip by SeRoGa00
Библиотека кодирования : x264 core 148 r2762 90a61ec
Настройки программы : cabac=1 / ref=4 / deblock=1:-3:-3 / analyse=0x3:0x113 / me=umh / subme=10 / psy=1 / psy_rd=1.00:0.15 / mixed_ref=1 / me_range=24 / chroma_me=1 / trellis=2 / 8x8dct=1 / cqm=0 / deadzone=21,11 / fast_pskip=1 / chroma_qp_offset=-3 / threads=9 / lookahead_threads=2 / sliced_threads=0 / nr=0 / decimate=1 / interlaced=0 / bluray_compat=0 / constrained_intra=0 / bframes=10 / b_pyramid=2 / b_adapt=2 / b_bias=0 / direct=3 / weightb=1 / open_gop=0 / weightp=2 / keyint=250 / keyint_min=23 / scenecut=40 / intra_refresh=0 / rc_lookahead=60 / rc=crf / mbtree=1 / crf=18.0 / qcomp=0.60 / qpmin=10 / qpmax=69 / qpstep=4 / vbv_maxrate=40000 / vbv_bufsize=40000 / crf_max=0.0 / nal_hrd=none / filler=0 / ip_ratio=1.40 / aq=1:1.00
Язык : English
Default : Нет
Forced : Нет

Аудио #1
Идентификатор : 2
Формат : AC-3
Формат/Информация : Audio Coding 3
Расширение режима : CM (complete main)
Параметр Endianness формата : Big
Идентификатор кодека : A_AC3
Продолжительность : 1 ч. 29 м.
Вид битрейта : Постоянный
Битрейт : 384 Кбит/сек
Каналы : 6 каналов
Расположение каналов : Front: L C R, Side: L R, LFE
Частота : 48,0 КГц
Битовая глубина : 16 бит
Метод сжатия : С потерями
Размер потока : 245 Мбайт (3%)
Язык : Russian
Default : Да
Forced : Нет

Аудио #2
Идентификатор : 3
Формат : AC-3
Формат/Информация : Audio Coding 3
Расширение режима : CM (complete main)
Параметр Endianness формата : Big
Идентификатор кодека : A_AC3
Продолжительность : 1 ч. 29 м.
Вид битрейта : Постоянный
Битрейт : 640 Кбит/сек
Каналы : 6 каналов
Расположение каналов : Front: L C R, Side: L R, LFE
Частота : 48,0 КГц
Битовая глубина : 16 бит
Метод сжатия : С потерями
Размер потока : 408 Мбайт (6%)
Язык : English
Default : Нет
Forced : Нет


Трекер:  [ 04-Фев-2018 13:01 ]

  

Скачать .torrent

Размер .torrent файла 36 KB


Размер: 7.11 GB
Хэш (hash) релиза: eae355ef0cb5b8a5472b03aa6016961397884310
Подписка на обновления:

Еще никто не оставлял запись к записи скачать торрент Снежная королева 3. Огонь и лед в 3Д The Snow Queen 3: Fire and Ice 3D . Будь первым!

!Обратная связь