Laura Haddock,
Even Stevens (1999–2003)

Скачать через торрент На Дерибасовской хорошая погода, или На Брайтон Бич опять идут дожди Фильм бесплатно в хорошем качестве torrent

Скачивайте на UnionPeer.org фильмы через торрент без регистрации. Новинки кино в хорошем качестве через торрент. На UnionPeer.org можно скачать через торрент фильмы 2014 и 2015 годов. Самые новые фильмы.

Скачать торрент На Дерибасовской хорошая погода, или На Брайтон Бич опять идут дожди бесплатно через .torrent фильм мультфильм сериал

Статистика раздачи
Размер:  1.46 GB   |    Зарегистрирован:  3 месяца 17 дней   |    .torrent скачан:  33 раза   |   
Раздают:  1  
   
загрузка...
 
Автор Сообщение

Galfimbul

avatar Galfimbul


На Дерибасовской хорошая погода, или На Брайтон Бич опять идут дожди

Жанр: Боевик, комедия, криминал
Год выпуска: 1992
Продолжительность: 01:27:31

Режиссёр: Леонид Гайдай

В ролях: Дмитрий Харатьян, Келли МакГрилл, Андрей Мягков, Михаил Кокшенов, Юрий Волынцев, Эммануил Виторган, Армен Джигарханян, Мамука Кикалейшвили, Евгений Весник, Наталья Крачковская, Леонид Куравлёв, Владимир Седов, Спартак Мишулин, Александр Рыжков, Николай Бандурин, Михаил Вашуков, Юрий Воробьёв, Сергей Рубеко, Самсон Изерибе, Густав Квами Унса, Руслан Ахметов, Владимир Ферапонтов, Ментай Утепбергенов, Александр Лойе, Вячеслав Разбегаев, Василий Рыбин, Муза Крепкогорская, Вера Ивлева, Павел Винник, Аркадий Инин, Павел Комаров, Елена Бушуева, Георгий Дронов

Описание: Президенты СССР и США должны встретиться для важных переговоров. Однако встреча оказалась под угрозой срыва из-за разгула русской мафии, обосновавшейся в США. Мафиози Рабинович даже вмешивается в разговор президентов по суперсекретной телефонной линии.

Доп. информация:
Автор релиза -
Источник аудио и видео для рипа - HDTV 1080i TS - моя запись с канала Первый HD
В дорожке AC3, 48000 Гц, 6ch, 384 kbps по факту лишь 2 канала со звуком, а оставшиеся 4 канала пустые, поэтому аудио-дорожка была перекодирована в AC3 2.0 192 kbps с использованием eac3to и Sony Vegas

Сэмпл: http://yadi.sk/i/AUqgri533S59xZ

Рекламы нет!

Качество видео: HDTVRip
Формат видео: AVI

Видео: XviD, 720x528 (4:3), 25.000 fps, 2180 kbps, 0.229 bit/pixel
Аудио: Русский AC3, 48000 Гц, 2ch, 192 kbps
ОбщееПолное имя : D:\На.Дерибасовской.хорошая.погода.1992.HDTVRip-ylnian.aviФормат : AVIФормат/Информация : Audio Video InterleaveРазмер файла : 1,46 ГбайтПродолжительность : 1 ч. 27 м.Общий поток : 2382 Кбит/секПрограмма кодирования : VirtualDubMod 1.5.10.2 (build 2540/release)Библиотека кодирования : VirtualDubMod build 2540/release

ВидеоИдентификатор : 0Формат : MPEG-4 VisualПрофиль формата : Advanced [email protected]Настройки формата : BVOP1Параметр BVOP формата : 1Параметр QPel формата : НетПараметр GMC формата : Без точки переходаПараметр матрицы формата : Default (MPEG)Идентификатор кодека : XVIDИдентификатор кодека/Подсказка : XviDПродолжительность : 1 ч. 27 м.Битрейт : 2180 Кбит/секШирина : 720 пикселейВысота : 528 пикселейСоотношение сторон : 4:3Частота кадров : 25,000 кадров/секЦветовое пространство : YUVСубдискретизация насыщенности : 4:2:0Битовая глубина : 8 битТип развёртки : ПрогрессивнаяМетод сжатия : С потерямиБит/(Пиксели*Кадры) : 0.229Размер потока : 1,33 Гбайт (92%)Библиотека кодирования : XviD 67

АудиоИдентификатор : 1Формат : AC-3Формат/Информация : Audio Coding 3Идентификатор кодека : 2000Продолжительность : 1 ч. 27 м.Вид битрейта : ПостоянныйБитрейт : 192 Кбит/секКаналы : 2 каналаРасположение каналов : Front: L RЧастота : 48,0 КГцЧастота кадров : 31,250 кадров/сек (1536 SPF)Битовая глубина : 16 битМетод сжатия : С потерямиРазмер потока : 120 Мбайт (8%)Выравнивание : Разделение по промежуткамПродолжительность промежутка : 40 мс. (1,00 видеокадр)Время предзагрузки промежутка : 500 мс.ServiceKind/String : Complete Main
Сравнение скриншотов с DVDRip - http://screenshotcomparison.com/comparison/130866


Трекер:  [ 04-Фев-2018 11:54 ]

  

Скачать .torrent

Размер .torrent файла 15 KB


Размер: 1.46 GB
Хэш (hash) релиза: 0b1c700fcf435ebc442a92299b2d80f2fecdbffe
Подписка на обновления:

Еще никто не оставлял запись к записи скачать торрент На Дерибасовской хорошая погода, или На Брайтон Бич опять идут дожди . Будь первым!

!Обратная связь