Émulation | Mistérios , Espionagem e Detectives | Movavi Screen Recorder 9 5 0 + Crack [CracksMind]

Скачать через торрент Время первых Spacewalker Фильм бесплатно в хорошем качестве torrent

Скачивайте на UnionPeer.org фильмы через торрент без регистрации. Новинки кино в хорошем качестве через торрент. На UnionPeer.org можно скачать через торрент фильмы 2014 и 2015 годов. Самые новые фильмы.

Скачать торрент Время первых Spacewalker бесплатно через .torrent фильм мультфильм сериал

Статистика раздачи
Размер:  2.68 GB   |    Зарегистрирован:  5 месяцев 12 дней   |    .torrent скачан:  102 раза   |   
Раздают:  2  
   
загрузка...
 
Автор Сообщение

Galfimbul

avatar Galfimbul


Время первых / Spacewalker
Жанр: приключения, триллер
Год выпуска: 2017
Продолжительность: 02:16:57

Режиссёр: Дмитрий Киселёв

В ролях: Евгений Миронов, Константин Хабенский, Владимир Ильин, Анатолий Котенёв, Александра Урсуляк, Елена Панова, Александр Новин, Марта Тимофеева, Геннадий Смирнов, Юрий Нифонтов

Описание: 60-е. Разгар холодной войны. Две супердержавы, СССР и США бьются за первенство в космической гонке. Пока СССР впереди, на очереди – выход человека в открытый космос.
За две недели до старта взрывается тестовый корабль. Времени на выявление причин нет. И пусть риски огромны, мы не можем уступить лидерство.
Опытный военный летчик Павел Беляев и его напарник Алексей Леонов, необстрелянный и горячий, мечтающий о подвиге, – два человека, готовые шагнуть в неизвестность. Но никто не мог даже предположить всего, с чем им предстояло столкнуться в полете. В этой миссии все, что только можно, пошло не так…

Сэмпл: http://sendfile.su/1396319
Качество видео: BDRip-AVC (Время первых (2017) BDRemux-1080p GER Transfer)
Формат видео: MKV

Видео: 1140x482 (2.35:1), 23,976 fps, ~2353 kbps avg, 0,179 bit/pixel
Аудио: 48 kHz, AC3 Dolby Digital, 3/2 (L,C,R,l,r) + LFE ch, ~448 kbps
General
Unique ID : 190575866751779016305609318257603790862 (0x8F5F93AC2538BF4D44B369AA76C6480E)
Format : Matroska
Format version : Version 4 / Version 2
File size : 2.68 GiB
Duration : 2h 16mn
Overall bit rate : 2 803 Kbps
Encoded date : UTC 2018-02-03 16:47:23
Writing application : mkvmerge v20.0.0 ('I Am The Sun') 64-bit
Writing library : libebml v1.3.5 + libmatroska v1.4.8
Video #1
ID : 1
Format : AVC
Format/Info : Advanced Video Codec
Format profile : [email protected]
Format settings, CABAC : Yes
Format settings, ReFrames : 11 frames
Codec ID : V_MPEG4/ISO/AVC
Duration : 2h 16mn
Bit rate : 2 353 Kbps
Width : 1 140 pixels
Height : 482 pixels
Display aspect ratio : 2.35:1
Frame rate mode : Constant
Frame rate : 23.976 (24000/1001) fps
Color space : YUV
Chroma subsampling : 4:2:0
Bit depth : 8 bits
Scan type : Progressive
Bits/(Pixel*Frame) : 0.179
Stream size : 2.25 GiB (84%)
Writing library : x264 core 152 r2851 ba24899
Encoding settings : cabac=1 / ref=11 / deblock=1:-3:-2 / analyse=0x3:0x133 / me=umh / subme=10 / psy=1 / psy_rd=1.00:0.00 / mixed_ref=1 / me_range=32 / chroma_me=1 / trellis=2 / 8x8dct=1 / cqm=0 / deadzone=21,11 / fast_pskip=0 / chroma_qp_offset=-2 / threads=6 / lookahead_threads=1 / sliced_threads=0 / nr=0 / decimate=1 / interlaced=0 / bluray_compat=0 / constrained_intra=0 / bframes=11 / b_pyramid=2 / b_adapt=2 / b_bias=0 / direct=1 / weightb=1 / open_gop=0 / weightp=2 / keyint=250 / keyint_min=23 / scenecut=40 / intra_refresh=0 / rc=crf / mbtree=0 / crf=18.2 / qcomp=0.65 / qpmin=0 / qpmax=69 / qpstep=4 / ip_ratio=1.40 / pb_ratio=1.30 / aq=3:0.90
Language : English
Default : Yes
Forced : No
Audio #2
ID : 2
Format : AC-3
Format/Info : Audio Coding 3
Mode extension : CM (complete main)
Format settings, Endianness : Big
Codec ID : A_AC3
Duration : 2h 16mn
Bit rate mode : Constant
Bit rate : 448 Kbps
Channel(s) : 6 channels
Channel positions : Front: L C R, Side: L R, LFE
Sampling rate : 48.0 KHz
Frame rate : 31.250 fps (1536 spf)
Compression mode : Lossy
Stream size : 439 MiB (16%)
Language : Russian
Default : Yes
Forced : No
raw [info]: 1140x482p 1:1 @ 24000/1001 fps (cfr)
x264 [info]: using SAR=1/1
x264 [info]: using cpu capabilities: MMX2 SSE2Fast SSSE3 SSE4.2 AVX XOP FMA3 BMI1
x264 [info]: profile High, level 4.1
x264 [info]: frame I:1791 Avg QP:15.97 size: 77019
x264 [info]: frame P:42367 Avg QP:17.37 size: 26246
x264 [info]: frame B:152855 Avg QP:20.21 size: 7638
x264 [info]: consecutive B-frames: 2.0% 1.6% 8.0% 21.6% 21.3% 37.9% 3.7% 1.1% 1.0% 0.9% 0.5% 0.5%
x264 [info]: mb I I16..4: 4.1% 72.7% 23.1%
x264 [info]: mb P I16..4: 1.1% 9.9% 2.2% P16..4: 38.7% 24.9% 18.1% 0.9% 0.3% skip: 3.8%
x264 [info]: mb B I16..4: 0.1% 0.8% 0.2% B16..8: 38.1% 11.9% 3.1% direct: 5.0% skip:40.6% L0:42.2% L1:42.9% BI:14.9%
x264 [info]: 8x8 transform intra:73.8% inter:61.4%
x264 [info]: coded y,uvDC,uvAC intra: 80.7% 84.9% 66.8% inter: 21.0% 18.5% 6.8%
x264 [info]: i16 v,h,dc,p: 32% 13% 7% 48%
x264 [info]: i8 v,h,dc,ddl,ddr,vr,hd,vl,hu: 16% 10% 8% 8% 12% 11% 12% 11% 12%
x264 [info]: i4 v,h,dc,ddl,ddr,vr,hd,vl,hu: 27% 11% 5% 7% 11% 11% 10% 8% 10%
x264 [info]: i8c dc,h,v,p: 42% 24% 20% 15%
x264 [info]: Weighted P-Frames: Y:14.0% UV:9.1%
x264 [info]: ref P L0: 46.8% 12.2% 16.5% 6.4% 5.1% 3.6% 3.1% 1.7% 1.7% 1.4% 1.4% 0.2% 0.0%
x264 [info]: ref B L0: 75.2% 10.8% 5.2% 2.7% 1.9% 1.5% 1.2% 0.8% 0.5% 0.3%
x264 [info]: ref B L1: 94.7% 5.3%
x264 [info]: kb/s:2353.49

x264 [total]: encoded 197013 frames, 6.82 fps, 2353.49 kb/s


Трекер:  [ 03-Фев-2018 20:24 ]

  

Скачать .torrent

Размер .torrent файла 14 KB


Размер: 2.68 GB
Хэш (hash) релиза: dc928877486e85a6858625e9b0c9403eb849d729
Подписка на обновления:

Еще никто не оставлял запись к записи скачать торрент Время первых Spacewalker . Будь первым!

!Обратная связь