No respires (Don’t Breathe) 53351
American Psycho 52606

Скачать через торрент Любовь в городе ангелов Фильм бесплатно в хорошем качестве torrent

Скачивайте на UnionPeer.org фильмы через торрент без регистрации. Новинки кино в хорошем качестве через торрент. На UnionPeer.org можно скачать через торрент фильмы 2014 и 2015 годов. Самые новые фильмы.

Скачать торрент Любовь в городе ангелов бесплатно через .torrent фильм мультфильм сериал

Если у вас наблюдаются проблемы со скриншотами, переходом по ссылками, скачиванием торрентов - проблемы в блокировщике рекламы AdBlock. #хорошегоДня!


Статистика раздачи
Размер:  1.37 GB   |    Зарегистрирован:  21 день   |    .torrent скачан:  49 раз   |   
Раздают:  1  
   
Загрузка...
 
Автор Сообщение

Galfimbul

avatar Galfimbul


Любовь в городе ангелов

Жанр: комедия
Год выпуска: 2017
Продолжительность: 01:21:22

Режиссёр: Евгений Вихарев

В ролях: Наталья Рудова, Микаэл Арамян, Андрей Свиридов, Константин Лавыш
Описание: В Лос Анджелесе, в самом романтичном городе в мире, встретились два самых неромантичных человека — она на первом свидании выбросила его букет в помойку, а он поил ее самым невкусным кофе в городе. Она пришла на второе свидание в одном нижнем белье, а он обманул ее, так и не решившись безрассудно своровать для нее платье в магазине. И тем не менее, это были самые красивые несколько дней в жизни каждого из них.
Будет ли у этих отношений продолжение, ведь он даже имени ее не знает? В этом городе, на песочном берегу, конечно, возможно все. Океан нашепчет им мелодию любви и где, как не в Городе Ангелов поверить в настоящую любовь. Пусть даже и на несколько дней.

Sample

Качество видео: WEB-DLRip
Формат видео: AVI

Видео: 720x304 (2.35:1), 24 fps, XviD build 73 ~2209 kbps avg, 0.42 bit/pixel
Аудио: 48 kHz, AC3 Dolby Digital, 2/0 (L,R) ch, ~192 kbps
General
Complete name : D:\Ljubov.v.gorode.angelov.2017.WEB-DLRip.avi
Format : AVI
Format/Info : Audio Video Interleave
File size : 1.37 GiB
Duration : 1h 21mn
Overall bit rate : 2 410 Kbps
Writing application : VirtualDubMod 1.5.10.3 (build 2550/release)
Writing library : VirtualDubMod build 2550/release

Video
ID : 0
Format : MPEG-4 Visual
Format profile : Advanced [email protected]
Format settings, BVOP : 1
Format settings, QPel : No
Format settings, GMC : No warppoints
Format settings, Matrix : Custom
Codec ID : XVID
Codec ID/Hint : XviD
Duration : 1h 21mn
Bit rate : 2 209 Kbps
Width : 720 pixels
Height : 304 pixels
Display aspect ratio : 2.35:1
Frame rate : 24.000 fps
Color space : YUV
Chroma subsampling : 4:2:0
Bit depth : 8 bits
Scan type : Progressive
Compression mode : Lossy
Bits/(Pixel*Frame) : 0.420
Stream size : 1.26 GiB (92%)
Writing library : XviD 73

Audio
ID : 1
Format : AC-3
Format/Info : Audio Coding 3
Mode extension : CM (complete main)
Format settings, Endianness : Big
Codec ID : 2000
Duration : 1h 21mn
Bit rate mode : Constant
Bit rate : 192 Kbps
Channel count : 2 channels
Channel positions : Front: L R
Sampling rate : 48.0 KHz
Bit depth : 16 bits
Compression mode : Lossy
Stream size : 112 MiB (8%)
Alignment : Split accross interleaves
Interleave, duration : 42 ms (1.00 video frame)
Interleave, preload duration : 500 ms


Трекер:  [ 03-Фев-2018 17:24 ]

  

Скачать .torrent

Размер .torrent файла 14 KB


Размер: 1.37 GB
Хэш (hash) релиза: 0987f616af58a15d96e7384ff11710c74a109e56
Подписка на обновления:

Торренты, похожие на Любовь в городе ангелов скачать торрент

Форум Название Автор Размер S L Добавлен
Российские фильмы 2016-2018 (Новинки русского кино) ·· Любовь в городе ангелов (Евгений Вихарев) [2017 г., комедия, WEB-DLRip] Galfimbul 14707179521.37 GB 0 0 1517645439

11:10

3-Фев-18

Российские фильмы 2016-2018 (Новинки русского кино) ·· Любовь в городе ангелов (Евгений Вихарев) [2017 г., комедия, WEB-DLRip 1080p] Galfimbul 32693642293.04 GB 4 0 1517607668

00:41

3-Фев-18

Российские фильмы 2016-2018 (Новинки русского кино) ·· Любовь в городе ангелов (Евгений Вихарев) [2017 г., комедия, WEB-DL 1080p] Galfimbul 33341378303.11 GB 0 0 1509271495

13:04

29-Окт-17

Российские фильмы 2016-2018 (Новинки русского кино) ·· Любовь в городе ангелов (Евгений Вихарев) [2017 г., комедия, WEB-DLRip] Galfimbul 14678487041.37 GB 3 0 1509271493

13:04

29-Окт-17

Российские фильмы 2016-2018 (Новинки русского кино) ·· Любовь в городе ангелов (Евгений Вихарев) [2017 г., комедия, WEB-DL 720p] Galfimbul 27578216102.57 GB 0 0 1509271494

13:04

29-Окт-17

Российские фильмы 2016-2018 (Новинки русского кино) ·· Любовь в городе ангелов (Евгений Вихарев) [2017 г., комедия, CAMRip] Galfimbul 14675599361.37 GB 2 0 1507043871

18:17

3-Окт-17

Еще никто не оставлял запись к записи скачать торрент Любовь в городе ангелов . Будь первым!

!Обратная связь