One Piece Chapter 883: | Season 3 Episode 16 And the ATM | Gender Bender

Скачать через торрент Городские птички Фильм бесплатно в хорошем качестве torrent

Скачивайте на UnionPeer.org фильмы через торрент без регистрации. Новинки кино в хорошем качестве через торрент. На UnionPeer.org можно скачать через торрент фильмы 2014 и 2015 годов. Самые новые фильмы.

Скачать торрент Городские птички бесплатно через .torrent фильм мультфильм сериал

Статистика раздачи
Размер:  1.37 GB   |    Зарегистрирован:  4 месяца 18 дней   |    .torrent скачан:  40 раз   |   
Раздают:  1  
   
загрузка...
 
Автор Сообщение

Galfimbul

avatar Galfimbul


Городские птички

Жанр: комедия, мелодрама
Год выпуска: 2016
Продолжительность: 01:24:07

Режиссёр: Юлия Белая

В ролях: Евгения Афонская, Евгения Громова, Анна Воркуева, Филипп Авдеев, Александр Горчилин, Харальд Розенстрём, Елена Махова, Артем Сучков, Роман Хан
Описание: В центре нашего внимания — романтические истории трех подруг. Маша — редактор в детском издательстве, полноватая, закомплексованная, из хорошей семьи, попадает в совершенно неожиданную для нее ситуацию — просыпается с похмелья в боксерском клубе. Настя продает модные вещи, деловая, самостоятельная, снимает квартиру со своим парнем Романом — начинающим татуировщиком. Настя случайно узнает, что Роман ей изменил, и решает ему отомстить. Рита — администратор в хостеле, месте встреч подруг, натура романтичная. Из-за боязни высоты мало путешествует, за это шутливо отыгрывается на посетителях-иностранцах: подпаивает их и обыгрывает в настольный хоккей. Но встреча с одним из гостей, Харольдом, заставляет Риту по-другому взглянуть на все вокруг. Каждая из героинь пытается найти и удержать любовь, но это не так-то просто!

Sample

Качество видео: WEB-DLRip
Формат видео: AVI

Видео: 720x400 (1.80:1), 25 fps, XviD build 73 ~2125 kbps avg, 0.29 bit/pixel
Аудио: 48 kHz, AC3 Dolby Digital, 2/0 (L,R) ch, ~192 kbps
General
Complete name : D:\Gorodskie.ptichki.2016.avi
Format : AVI
Format/Info : Audio Video Interleave
File size : 1.37 GiB
Duration : 1h 24mn
Overall bit rate : 2 325 Kbps

Video
ID : 0
Format : MPEG-4 Visual
Format profile : Advanced [email protected]
Format settings, BVOP : 1
Format settings, QPel : No
Format settings, GMC : No warppoints
Format settings, Matrix : Custom
Codec ID : XVID
Codec ID/Hint : XviD
Duration : 1h 24mn
Bit rate : 2 125 Kbps
Width : 720 pixels
Height : 400 pixels
Display aspect ratio : 16:9
Frame rate : 25.000 fps
Color space : YUV
Chroma subsampling : 4:2:0
Bit depth : 8 bits
Scan type : Progressive
Compression mode : Lossy
Bits/(Pixel*Frame) : 0.295
Stream size : 1.25 GiB (91%)
Writing library : XviD 73

Audio
ID : 1
Format : AC-3
Format/Info : Audio Coding 3
Mode extension : CM (complete main)
Format settings, Endianness : Big
Codec ID : 2000
Duration : 1h 24mn
Bit rate mode : Constant
Bit rate : 192 Kbps
Channel count : 2 channels
Channel positions : Front: L R
Sampling rate : 48.0 KHz
Bit depth : 16 bits
Compression mode : Lossy
Stream size : 116 MiB (8%)
Alignment : Aligned on interleaves
Interleave, duration : 64 ms (1.60 video frames)
Interleave, preload duration : 192 ms
Title : Rus


Трекер:  [ 03-Фев-2018 17:24 ]

  

Скачать .torrent

Размер .torrent файла 14 KB


Размер: 1.37 GB
Хэш (hash) релиза: 7e3ba2f577f9f2c9ae4da0f2067f02e482d5c344
Подписка на обновления:

Торренты, похожие на Городские птички скачать торрент

Форум Название Автор Размер S L Добавлен
Российские фильмы 2016-2018 (Новинки русского кино) ·· Городские птички (Юлия Белая) [2015, Комедия, мелодрама, WEB-DLRip 1080p] Galfimbul 33908655863.16 GB 0 0 1497034968

22:02

9-Июн-17

Еще никто не оставлял запись к записи скачать торрент Городские птички . Будь первым!

!Обратная связь