Comenta Las Últimas Series Que Viste X 264 | Mămici rele | Дедушка легкого поведения / Dirty Grandpa (2016) WEB-DLRip | Line

Скачать через торрент [ATV3] Праздничный переполох Le sens de la fête бесплатно русская версия torrent активатор

Статистика раздачи
Размер:  4.61 GB   |    Зарегистрирован:  6 месяцев   |    .torrent скачан:  22 раза   |   
Раздают:  1  
   
загрузка...
 
Автор Сообщение

Galfimbul

avatar Galfimbul


Праздничный переполох / Le sens de la fête
-

7.084 / 10 7.10 / 10
Год выпуска: 2017
Страна: Франция, Канада, Бельгия
Жанр: Комедия
Продолжительность: 01:55:21

Перевод: Дублированный (iTunes)
Оригинальная аудиодорожка: Нет
Cубтитры: Нет
Режиссёр: Эрик Толедано
Сценарий: Оливье Накаш, Эрик Толедано
Продюсер: Николя Дюваль-Адассовски, Лоран Зэйтун, Ян Зеноу
Оператор: Давид Шизалле
Композитор: Авишай Коэн
Художник: Николя де Буакуийе, Седрик Анри, Матьё Вадпьед
Монтаж: Дориан Ригаль-Ансу
В ролях: Жан-Пьер Бакри, Жан-Поль Рув, Жиль Леллуш, Венсан Макен, Эй Айдара, Сюзанн Клеман, Элбан Иванов, Элен Венсан, Бенжамен Лаверн, Жюдит Шемла

Бюджет: €14 850 000
Сборы в России: $861 294

Мировая премьера: 5 июля 2017
Премьера (РФ): 1 января 2018, «Capella Film», «Пионер»

Цифровой релиз: 01 февраля 2018, «Capella Film»

Описание: Макс, организатор мероприятий, должен провести свадьбу в замке 17 века. Под его контролем всё: банкет, фотограф, повара и официанты. Казалось бы, что может пойти не так? Но, как известно, если что-то может случиться — оно обязательно случается.
Качество исходника: WEB-DL 1080p (NNMClub)
Качество: WEB-DL
Тип: HD (1080p)
Контейнер: M4V
Видео: H.264, 1920x1080, 16:9, 5 177 Kbps, 24.000 fps

Аудио 1: Русский/Дублированный (iTunes), AAC / 2.0 / 160 Kbps / 48.0 KHz
Аудио 2: Русский/Дублированный (iTunes), AC-3 / 5.1 / 384 Kbps / 48.0 KHz
Sort Name: Праздничный переполох
XID: Apple:vendor_id:2017-977482
contentID: 1334764892
Copyright: © 2018 Capella Film
Screenwriters: Оливье Накаш, Эрик Толедано
Producers: Николя Дюваль-Адассовски, Лоран Зэйтун, Ян Зеноу
Director: Оливье Накаш & Эрик Толедано
Cast: Жан-Пьер Бакри, Жан-Поль Рув, Жиль Леллуш, Венсан Макень, Эй Айдара, Сюзанн Клеман, Элбан Иванов, Элен Венсан, Бенжамен Лаверн, Жюдит Шемла
Studio: A Plus Image 7, Canal + [fr], Cine, Compagnie Cinematographique La, Entourage Pictures, Gaumont, Main Journey, Panache Productions, Quad Productions, Ten Films, TF1, TF1 Films Production
Rating: 135
Long Description: Макс, организатор мероприятий, должен провести свадьбу в замке 17 века. Под его контролем всё: банкет, фотограф, повара и официанты. Казалось бы, что может пойти не так? Но, как известно, если что-то может случиться — оно обязательно случается.
Description: Макс, организатор мероприятий, должен провести свадьбу в замке 17 века. Под его контролем всё: банкет, фотограф, повара и официанты.
Release Date: 2018-01-01T08:00:00Z
Genre: Комедии
Artist: Оливье Накаш & Эрик Толедано
Name: Праздничный переполох
General
Complete name : /Users/imac/HandBrake/Prazdnichny.perepoloh.WEB-DL.1080p.m4v
Format : MPEG-4
Codec ID : M4V
File size : 4.61 GiB
Duration : 1h 55mn
Overall bit rate mode : Variable
Overall bit rate : 5 722 Kbps
Movie name : Праздничный переполох
Performer : Оливье Накаш & Эрик Толедано
Director : Оливье Накаш & Эрик Толедано
Actor : Жан-Пьер Бакри / Жан-Поль Рув / Жиль Леллуш / Венсан Макень / Эй Айдара / Сюзанн Клеман / Элбан Иванов / Элен Венсан / Бенжамен Лаверн / Жюдит Шемла
Screenplay by : Оливье Накаш / Эрик Толедано
Producer : Николя Дюваль-Адассовски / Лоран Зэйтун / Ян Зеноу
Production studio : A Plus Image 7, Canal + [fr], Cine, Compagnie Cinematographique La, Entourage Pictures, Gaumont, Main Journey, Panache Productions, Quad Productions, Ten Films, TF1, TF1 Films Production
Genre : Комедии
ContentType : Short Film
Description : Макс, организатор мероприятий, должен провести свадьбу в замке 17 века. Под его контролем всё: банкет, фотограф, повара и официанты.
Recorded date : UTC 2018-01-01 08:00:00
Encoded date : UTC 2018-02-03 13:33:59
Tagged date : UTC 2018-02-03 13:37:20
Copyright : © 2018 Capella Film
Cover : Yes
Rating : None
Title/Sort : Праздничный переполох
LongDescription : Макс, организатор мероприятий, должен провести свадьбу в замке 17 века. Под его контролем всё: банкет, фотограф, повара и официанты. Казалось бы, что может пойти не так? Но, как известно, если что-то может случиться — оно обязательно случается.
AppleStoreCatalogID : 1334764892
Vendor : Apple:vendor_id:2017-977482
ContentRating : ru-movie|16+|375|

Video #1
ID : 1
Format : AVC
Format/Info : Advanced Video Codec
Format profile : [email protected]
Format settings, CABAC : Yes
Format settings, ReFrames : 4 frames
Codec ID : avc1
Codec ID/Info : Advanced Video Coding
Duration : 1h 55mn
Bit rate : 5 177 Kbps
Width : 1 920 pixels
Height : 1 080 pixels
Display aspect ratio : 16:9
Frame rate mode : Variable
Frame rate : 24.000 fps
Minimum frame rate : 23.810 fps
Maximum frame rate : 24.390 fps
Color space : YUV
Chroma subsampling : 4:2:0
Bit depth : 8 bits
Scan type : Progressive
Bits/(Pixel*Frame) : 0.104
Stream size : 4.17 GiB (90%)
Title : Main Program
Language : French
Encoded date : UTC 2018-02-03 13:33:59
Tagged date : UTC 2018-02-03 13:34:06
Color range : Limited
Color primaries : BT.709
Transfer characteristics : BT.709
Matrix coefficients : BT.709

Video #2
ID : 5
Format : JPEG
Codec ID : jpeg
Duration : 1h 55mn
Bit rate mode : Variable
Bit rate : 875 bps
Width : 640 pixels
Height : 360 pixels
Display aspect ratio : 16:9
Frame rate mode : Variable
Frame rate : 0.002 fps
Minimum frame rate : 0.001 fps
Maximum frame rate : 0.003 fps
Color space : YUV
Chroma subsampling : 4:2:0
Bit depth : 8 bits
Compression mode : Lossy
Bits/(Pixel*Frame) : 1.899
Stream size : 908 KiB (0%)
Title : Chapter Images
Language : French
Encoded date : UTC 2018-02-03 13:34:15
Tagged date : UTC 2018-02-03 13:34:16

Audio #1
ID : 2
Format : AAC
Format/Info : Advanced Audio Codec
Format profile : LC
Codec ID : 40
Duration : 1h 55mn
Source duration : 1h 55mn
Bit rate mode : Variable
Bit rate : 155 Kbps
Maximum bit rate : 251 Kbps
Channel(s) : 2 channels
Channel positions : Front: L R
Sampling rate : 48.0 KHz
Compression mode : Lossy
Stream size : 128 MiB (3%)
Source stream size : 128 MiB (3%)
Title : Russian Stereo
Language : Russian
Encoded date : UTC 2018-02-03 13:33:59
Tagged date : UTC 2018-02-03 13:34:08

Audio #2
ID : 3
Format : AC-3
Format/Info : Audio Coding 3
Mode extension : CM (complete main)
Format settings, Endianness : Big
Codec ID : ac-3
Duration : 1h 55mn
Bit rate mode : Constant
Bit rate : 384 Kbps
Channel(s) : 6 channels
Channel positions : Front: L C R, Side: L R, LFE
Sampling rate : 48.0 KHz
Bit depth : 16 bits
Compression mode : Lossy
Stream size : 317 MiB (7%)
Title : Russian DD 5.1
Language : Russian
Encoded date : UTC 2018-02-03 13:33:59
Tagged date : UTC 2018-02-03 13:34:06

Menu #1
00:00:00.000 : Chapter 1
00:07:14.875 : Chapter 2
00:13:47.791 : Chapter 3
00:21:04.624 : Chapter 4
00:29:14.165 : Chapter 5
00:34:56.248 : Chapter 6
00:40:55.289 : Chapter 7
00:46:51.830 : Chapter 8
00:53:42.705 : Chapter 9
01:00:00.371 : Chapter 10
01:05:17.204 : Chapter 11
01:11:01.662 : Chapter 12
01:16:25.370 : Chapter 13
01:22:00.745 : Chapter 14
01:27:22.245 : Chapter 15
01:34:25.536 : Chapter 16
01:42:00.661 : Chapter 17

Menu #2
ID : 4
Codec ID : text
Duration : 1h 55mn
Language : French
Encoded date : UTC 2018-02-03 13:34:08
Tagged date : UTC 2018-02-03 13:34:08
00:00:00.000 : Chapter 1
00:07:14.875 : Chapter 2
00:13:47.791 : Chapter 3
00:21:04.624 : Chapter 4
00:29:14.165 : Chapter 5
00:34:56.248 : Chapter 6
00:40:55.289 : Chapter 7
00:46:51.830 : Chapter 8
00:53:42.705 : Chapter 9
01:00:00.371 : Chapter 10
01:05:17.204 : Chapter 11
01:11:01.662 : Chapter 12
01:16:25.370 : Chapter 13
01:22:00.745 : Chapter 14
01:27:22.245 : Chapter 15
01:34:25.536 : Chapter 16
01:42:00.661 : Chapter 17
Bit rate mode : VBR

Релиз подготовлен для просмотра на Apple TV, iPad, iPhone, iPod Touch.
Для просмотра данного релиза на компьютере с ОС Windows рекомендуется использовать VLC media player

Трекер:  [ 03-Фев-2018 17:12 ]

  

Скачать .torrent

Размер .torrent файла 46 KB


Размер: 4.61 GB
Хэш (hash) релиза: c87b3182972d4f11c330450649777f2abf05c4e9

Еще никто не оставлял запись к записи скачать торрент [ATV3] Праздничный переполох Le sens de la fête . Будь первым!

!Обратная связь