Life Of The Party | Dallas 2012 | KissXsis

Скачать через торрент Детектив Конан: Эпизод первый: Уменьшившийся великий детектив Detective Conan - Episode One - Chiisaku Natta Meitantei бесплатно Аниме Все серии на русском torrent

Статистика раздачи
Размер:  10.43 GB   |    Зарегистрирован:  6 месяцев   |    .torrent скачан:  10 раз   |   
Раздают:  1  
   
загрузка...
 
Автор Сообщение

Galfimbul

avatar Galfimbul



Детектив Конан: Эпизод первый: Уменьшившийся великий детектив / Detective Conan - Episode One - Chiisaku Natta Meitantei

Страна: Япония
Год выпуска: 2016
Жанр: комедия, детектив, романтика, сёнэн
Тип: Special
Продолжительность: 95 мин.
Перевод: RuMagician & kolpakchi

Переводчик: kolpakchi
Редактор: powerwar
Оформители: kolpakchi, powerwar
QC, караоке: Hibiki
Переводчик лирики: Arien Hikarin

Режиссер: Ямамото Ясуйтиро
Снято по манге: Детектив Конан
Студия:

Описание: "Истинный" первый эпизод анимэ "Детектив Конан", написанный самим мангакой Аоямой Госё. Во избежание спойлеров, рекомендуется смотреть после 704 эпизода анимэ "Детектив Конан".

Доп. информация: Это авторская раздача.

Качество: BDRip
Тип релиза: Без хардсаба
Формат видео: MKV
Наличие линковки: Нет
Релиз/Автор рипа: SOFCJ
Видео: MPEG4 Video (H264) 1920x1080 23.976fps 10 bit 13.7 Mb/s
Аудио: FLAC (framed) 48000Hz 6ch 1298 kbps Японская
Аудио: FLAC (framed) 48000Hz 48000Hz stereo 659 kbps Японская
GeneralUnique ID : 238734020258566316916464479738087949627 (0xB39A7FF54067CDED8AA0358AE769453B)Complete name : E:\Detective Conan - Episode One - Chiisaku Natta Meitantei [1080p]\[SOFCJ-Raws] Detective Conan - Episode One - Chiisaku Natta Meitantei (BDRip 1920x1080 x264 10bit FLACx2).mkvFormat : MatroskaFormat version : Version 4 / Version 2File size : 10.4 GiBDuration : 1 h 35 minOverall bit rate mode : VariableOverall bit rate : 15.6 Mb/sMovie name : [SOFCJ-Raws] Detective Conan - Episode One - Chiisaku Natta Meitantei (BDRip 1920x1080 x264 10bit FLACx2)Encoded date : UTC 2018-02-01 10:16:17Writing application : mkvmerge v8.3.0 ('Over the Horizon') 64bitWriting library : libebml v1.3.1 + libmatroska v1.4.2

VideoID : 1Format : AVCFormat/Info : Advanced Video CodecFormat profile : High [email protected] settings, CABAC : YesFormat settings, ReFrames : 4 framesCodec ID : V_MPEG4/ISO/AVCDuration : 1 h 35 minBit rate : 13.7 Mb/sWidth : 1 920 pixelsHeight : 1 080 pixelsDisplay aspect ratio : 16:9Frame rate mode : ConstantFrame rate : 23.976 (24000/1001) FPSColor space : YUVChroma subsampling : 4:2:0Bit depth : 10 bitsScan type : ProgressiveBits/(Pixel*Frame) : 0.275Stream size : 9.12 GiB (87%)Writing library : x264 core 152 r2851kMod ba24899Encoding settings : cabac=1 / ref=4 / deblock=1:-2:-2 / analyse=0x3:0x133 / me=umh / subme=10 / psy=1 / fade_compensate=0.00 / psy_rd=1.00:0.00 / mixed_ref=1 / me_range=24 / chroma_me=1 / trellis=2 / 8x8dct=1 / cqm=0 / deadzone=21,11 / fast_pskip=0 / chroma_qp_offset=-2 / threads=12 / lookahead_threads=2 / sliced_threads=0 / nr=0 / decimate=0 / interlaced=0 / bluray_compat=0 / constrained_intra=0 / bframes=8 / b_pyramid=2 / b_adapt=2 / b_bias=0 / direct=1 / weightb=1 / open_gop=0 / weightp=2 / keyint=250 / keyint_min=23 / scenecut=40 / intra_refresh=0 / rc=crf / mbtree=0 / crf=17.0000 / qcomp=0.60 / qpmin=0 / qpmax=81 / qpstep=4 / ip_ratio=1.40 / pb_ratio=1.30 / aq=1:1.00Language : JapaneseDefault : YesForced : NoColor range : LimitedColor primaries : BT.709Transfer characteristics : BT.709Matrix coefficients : BT.709

Audio #1ID : 2Format : FLACFormat/Info : Free Lossless Audio CodecCodec ID : A_FLACDuration : 1 h 35 minBit rate mode : VariableBit rate : 1 298 kb/sChannel(s) : 6 channelsChannel positions : Front: L C R, Back: L R, LFESampling rate : 48.0 kHzFrame rate : 11.719 FPS (4096 spf)Bit depth : 16 bitsStream size : 887 MiB (8%)Title : 5.1Writing library : libFLAC 1.3.2 (UTC 2017-01-01)Language : JapaneseDefault : YesForced : No

Audio #2ID : 3Format : FLACFormat/Info : Free Lossless Audio CodecCodec ID : A_FLACDuration : 1 h 35 minBit rate mode : VariableBit rate : 659 kb/sChannel(s) : 2 channelsChannel positions : Front: L RSampling rate : 48.0 kHzFrame rate : 11.719 FPS (4096 spf)Bit depth : 16 bitsStream size : 451 MiB (4%)Title : 2.0Writing library : libFLAC 1.3.2 (UTC 2017-01-01)Language : JapaneseDefault : NoForced : No
...5347631 - 1080p


Трекер:  [ 03-Фев-2018 14:30 ]

  

Скачать .torrent

Размер .torrent файла 27 KB


Размер: 10.43 GB
Хэш (hash) релиза: bafc56958673fcf7c6dbb607e87c8def6ffd01a3
Подписка на обновления:

Еще никто не оставлял запись к записи скачать торрент Детектив Конан: Эпизод первый: Уменьшившийся великий детектив Detective Conan - Episode One - Chiisaku Natta Meitantei . Будь первым!

!Обратная связь