M OBILISM | Кондор / Condor [01x01-03 из 10] (2018) WEB-DL 1080p | LostFilm, NewStudio | Regarder

Скачать через торрент iPad] ЛЕГО Ниндзяго Фильм The LEGO Ninjago Movie бесплатно русская версия torrent активатор

Статистика раздачи
Размер:  1.74 GB   |    Зарегистрирован:  6 месяцев   |    .torrent скачан:  32 раза   |   
Раздают:  1  
   
загрузка...
 
Автор Сообщение

Galfimbul

avatar Galfimbul


ЛЕГО Ниндзяго Фильм / The LEGO Ninjago Movie
«Открой в себе ниндзя»

6.239 / 10 6.00 / 10
Год выпуска: 2017
Страна: США, Дания
Жанр: Мультфильм, боевик, комедия, приключения, семейный
Продолжительность: 01:41:26

Перевод: Дублированный (Лицензия)
Оригинальная аудиодорожка: Есть
Cубтитры: Русские форсированные, Русские, Английские
Режиссёр: Боб Логан
Сценарий: Боб Логан, Пол Фишер, Уильям Уилер
Продюсер: Уилл Аллегра, Фиона Чилтон, Марианн Гарджер
Оператор: Дэвид Скотт
Композитор: Марк Мазерсбо
Художник: Энни Бошан, Ким Тейлор, Саймон Уайтели
Монтаж: Дэвид Берроуз, Гаррет Элкинс, Райан Фолси
В ролях: Джеки Чан, Дэйв Франко, Фред Армисен, Кумэйл Нанджиани, Майкл Пенья, Эбби Джейкобсон, Зак Вудс, Дэвид Берроуз, Алекс Кауффман, Джастин Теру

Бюджет: $70 000 000
Сборы в США: $59 281 555
Сборы в мире: + $63 800 000 = $123 081 555
Сборы в России: $3 507 031

Мировая премьера: 20 сентября 2017
Премьера (РФ): 21 сентября 2017, «Каро-Премьер»

Цифровой релиз: 27 декабря 2017, «Warner Bros.»

Описание: Ниндзяго-сити призывает на свою защиту юного Ллойда, он же Зеленый ниндзя, и его друзей, тайных воинов и Великих мастеров ЛЕГО. Под предводительством кунг-фу мастера Ву, столь же умного, сколь и остроумного, они должны одолеть злобного диктатора Гармадона, Самого Злодейского Злодея, который оказывается отцом Ллойда. Роботы против роботов, сын против отца; эпическое столкновение проверит на прочность эту неистовую, но не самую дисциплинированную команду современных ниндзя, которые должны научиться усмирять свое самомнение, чтобы по полной проявить свои способности.
Качество исходника: Blu-Ray (BlueBird)
Качество: BDRip
Тип: SD (576p)
Контейнер: M4V
Видео: H.264, 1024x432, 2.40:1, 2 200 Kbps, 23.976 (24000/1001) fps

Аудио 1: Русский/Дублированный (Лицензия), AAC / 2.0 / 128 Kbps / 48.0 KHz
Аудио 2: Английский/Оригинальная дорожка , AAC / 2.0 / 128 Kbps / 48.0 KHz

Субтитры 1: Русские форсированные
Субтитры 2: Русские полные
Субтитры 3: Английские полные
Sort Name: LEGO Ninjago Movie
XID: Apple:vendor_id:2017-777684
contentID: 1280615181
Copyright: © 2017 Warner Bros. Entertainment Inc. and Ratpac-Dune Entertainment LLC. LEGO, the LEGO logo, the Minifigure and NINJAGO are copyrights and ™ of the LEGO Group. Copyright 2017 The LEGO Group.
Screenwriters: Боб Логан, Пол Фишер, Уильям Уилер
Producers: Уилл Аллегра, Фиона Чилтон, Марианн Гарджер
Director: Чарли Бин, Пол Фишер, Боб Логан
Cast: Джеки Чан, Дэйв Франко, Фред Армисен, Кумэйл Нанджиани, Майкл Пенья, Эбби Джейкобсон, Зак Вудс, Дэвид Берроуз, Алекс Кауффман, Джастин Теру
Studio: Warner Bros.
Rating Annotation: Rated PG for some mild action and rude humor.
Rating: 3
Long Description: Ниндзяго-сити призывает на свою защиту юного Ллойда, он же Зеленый ниндзя, и его друзей, тайных воинов и Великих мастеров ЛЕГО. Под предводительством кунг-фу мастера Ву, столь же умного, сколь и остроумного, они должны одолеть злобного диктатора Гармадона, Самого Злодейского Злодея, который оказывается отцом Ллойда. Роботы против роботов, сын против отца; эпическое столкновение проверит на прочность эту неистовую, но не самую дисциплинированную команду современных ниндзя, которые должны научиться усмирять свое самомнение, чтобы по полной проявить свои способности.
Description: Ниндзяго-сити призывает на свою защиту юного Ллойда, он же Зеленый ниндзя, и его друзей, тайных воинов и Великих мастеров ЛЕГО. Под предводительством кунг-фу мастера Ву, столь же умного, сколь и остроумного, они должны одолеть злобного диктатора Гармадона, Самого Злодейского Злодея, который оказывается отцом Ллойда...
Release Date: 2017-09-20T08:00:00Z
Genre: Kids & Family
Artist: Bob Logan, Charlie Bean & Paul Fisher
Name: The LEGO Ninjago Movie
General
Complete name                            : /Users/imac/HandBrake/The.LEGO.Ninjago.(SD).(pk).m4v
Format                                   : MPEG-4
Codec ID                                 : M4V  (M4V /M4A /mp42/isom)
File size                                : 1.74 GiB
Duration                                 : 1h 41mn
Overall bit rate mode                    : Variable
Overall bit rate                         : 2 463 Kbps
Movie name                               : The LEGO Ninjago Movie
Performer                                : Bob Logan, Charlie Bean & Paul Fisher
Director                                 : Чарли Бин / Пол Фишер / Боб Логан
Actor                                    : Джеки Чан / Дэйв Франко / Фред Армисен / Кумэйл Нанджиани / Майкл Пенья / Эбби Джейкобсон / Зак Вудс / Дэвид Берроуз / Алекс Кауффман / Джастин Теру
Screenplay by                            : Боб Логан / Пол Фишер / Уильям Уилер
Producer                                 : Уилл Аллегра / Фиона Чилтон / Марианн Гарджер
Production studio                        : Warner Bros.
Genre                                    : Kids & Family
ContentType                              : Short Film
Description                              : Ниндзяго-сити призывает на свою защиту юного Ллойда, он же Зеленый ниндзя, и его друзей, тайных воинов и Великих мастеров ЛЕГО. Под предводительством кунг-фу мастера Ву, столь же умного, сколь и остроумного, они должны одолеть злобного диктатора Гармадона, Самого Злодейского Злодея, который оказывается отцом Ллойда...
Recorded date                            : UTC 2017-09-20 08:00:00
Encoded date                             : UTC 2018-02-02 09:38:34
Tagged date                              : UTC 2018-02-02 09:43:38
Copyright                                : © 2017 Warner Bros. Entertainment Inc. and Ratpac-Dune Entertainment LLC. LEGO, the LEGO logo, the Minifigure and NINJAGO are copyrights and ™ of the LEGO Group. Copyright 2017 The LEGO Group.
Cover                                    : Yes
Rating                                   : None
Title/Sort                               : LEGO Ninjago Movie
LongDescription                          : Ниндзяго-сити призывает на свою защиту юного Ллойда, он же Зеленый ниндзя, и его друзей, тайных воинов и Великих мастеров ЛЕГО. Под предводительством кунг-фу мастера Ву, столь же умного, сколь и остроумного, они должны одолеть злобного диктатора Гармадона, Самого Злодейского Злодея, который оказывается отцом Ллойда. Роботы против роботов, сын против отца; эпическое столкновение проверит на прочность эту неистовую, но не самую дисциплинированную команду современных ниндзя, которые должны научиться усмирять свое самомнение, чтобы по полной проявить свои способности.
AppleStoreCatalogID                      : 1280615181
Vendor                                   : Apple:vendor_id:2017-777684
ContentRating                            : mpaa|PG|200|Rated PG for some mild action and rude humor.

Video #1
ID                                       : 1
Format                                   : AVC
Format/Info                              : Advanced Video Codec
Format profile                           : [email protected]
Format settings                          : CABAC / 9 Ref Frames
Format settings, CABAC                   : Yes
Format settings, ReFrames                : 9 frames
Codec ID                                 : avc1
Codec ID/Info                            : Advanced Video Coding
Duration                                 : 1h 41mn
Source duration                          : 1h 41mn
Bit rate                                 : 2 200 Kbps
Width                                    : 1 024 pixels
Height                                   : 432 pixels
Display aspect ratio                     : 2.40:1
Frame rate mode                          : Variable
Frame rate                               : 23.976 (24000/1001) fps
Minimum frame rate                       : 23.974 fps
Maximum frame rate                       : 23.981 fps
Color space                              : YUV
Chroma subsampling                       : 4:2:0
Bit depth                                : 8 bits
Scan type                                : Progressive
Bits/(Pixel*Frame)                       : 0.207
Stream size                              : 1.56 GiB (89%)
Source stream size                       : 1.56 GiB (89%)
Title                                    : Main Program
Writing library                          : x264 core 148 r2708 86b7198
Encoding settings                        : cabac=1 / ref=9 / deblock=1:0:0 / analyse=0x3:0x113 / me=umh / subme=9 / psy=1 / psy_rd=1.00:0.00 / mixed_ref=1 / me_range=32 / chroma_me=1 / trellis=1 / 8x8dct=1 / cqm=0 / deadzone=21,11 / fast_pskip=1 / chroma_qp_offset=-2 / threads=13 / lookahead_threads=1 / sliced_threads=0 / nr=0 / decimate=1 / interlaced=0 / bluray_compat=0 / constrained_intra=0 / bframes=6 / b_pyramid=2 / b_adapt=2 / b_bias=0 / direct=1 / weightb=1 / open_gop=0 / weightp=2 / keyint=240 / keyint_min=24 / scenecut=40 / intra_refresh=0 / rc_lookahead=40 / rc=2pass / mbtree=1 / bitrate=2200 / ratetol=1.0 / qcomp=0.60 / qpmin=0 / qpmax=69 / qpstep=4 / cplxblur=20.0 / qblur=0.5 / ip_ratio=1.40 / aq=1:1.00
Language                                 : English
Encoded date                             : UTC 2018-02-02 09:38:34
Tagged date                              : UTC 2018-02-02 09:38:40
Color range                              : Limited
Color primaries                          : BT.709
Transfer characteristics                 : BT.709
Matrix coefficients                      : BT.709
Menus                                    : 7,8

Video #2
ID                                       : 8
Format                                   : JPEG
Codec ID                                 : jpeg
Duration                                 : 1h 41mn
Bit rate mode                            : Variable
Bit rate                                 : 653 bps
Width                                    : 640 pixels
Height                                   : 270 pixels
Display aspect ratio                     : 2.40:1
Frame rate mode                          : Variable
Frame rate                               : 0.002 fps
Minimum frame rate                       : 0.001 fps
Maximum frame rate                       : 0.002 fps
Color space                              : YUV
Chroma subsampling                       : 4:2:0
Bit depth                                : 8 bits
Compression mode                         : Lossy
Bits/(Pixel*Frame)                       : 1.889
Stream size                              : 398 KiB (0%)
Title                                    : Chapter Images
Language                                 : English
Default                                  : No
Encoded date                             : UTC 2018-02-02 09:38:46
Tagged date                              : UTC 2018-02-02 09:38:46
Menu For                                 : 1

Audio #1
ID                                       : 2
Format                                   : AAC
Format/Info                              : Advanced Audio Codec
Format profile                           : LC
Codec ID                                 : mp4a-40-2
Duration                                 : 1h 41mn
Source duration                          : 1h 41mn
Bit rate mode                            : Variable
Bit rate                                 : 127 Kbps
Maximum bit rate                         : 189 Kbps
Channel(s)                               : 2 channels
Channel positions                        : Front: L R
Sampling rate                            : 48.0 KHz
Frame rate                               : 46.875 fps (1024 SPF)
Compression mode                         : Lossy
Stream size                              : 91.9 MiB (5%)
Source stream size                       : 91.9 MiB (5%)
Title                                    : Russian Stereo
Language                                 : Russian
Default                                  : Yes
Alternate group                          : 1
Encoded date                             : UTC 2018-02-02 09:38:34
Tagged date                              : UTC 2018-02-02 09:38:44
Subtitles                                : 4,5

Audio #2
ID                                       : 3
Format                                   : AAC
Format/Info                              : Advanced Audio Codec
Format profile                           : LC
Codec ID                                 : mp4a-40-2
Duration                                 : 1h 41mn
Source duration                          : 1h 41mn
Bit rate mode                            : Variable
Bit rate                                 : 126 Kbps
Maximum bit rate                         : 192 Kbps
Channel(s)                               : 2 channels
Channel positions                        : Front: L R
Sampling rate                            : 48.0 KHz
Frame rate                               : 46.875 fps (1024 SPF)
Compression mode                         : Lossy
Stream size                              : 91.7 MiB (5%)
Source stream size                       : 91.7 MiB (5%)
Title                                    : English Stereo
Language                                 : English
Default                                  : No
Alternate group                          : 1
Encoded date                             : UTC 2018-02-02 09:38:34
Tagged date                              : UTC 2018-02-02 09:38:44

Text #1
ID                                       : 4
Format                                   : Timed Text
Muxing mode                              : sbtl
Codec ID                                 : tx3g
Duration                                 : 1h 41mn
Bit rate mode                            : Variable
Bit rate                                 : 1 bps
Stream size                              : 908 Bytes (0%)
Title                                    : Russian forced
Language                                 : Russian
Default                                  : Yes
Forced                                   : Yes
Alternate group                          : 2
Encoded date                             : UTC 2018-02-02 09:38:34
Tagged date                              : UTC 2018-02-02 09:38:40
Subtitles For                            : 2
Full Alternative                         : 5

Text #2
ID                                       : 5
Format                                   : Timed Text
Muxing mode                              : sbtl
Codec ID                                 : tx3g
Duration                                 : 1h 41mn
Bit rate mode                            : Variable
Bit rate                                 : 139 bps
Stream size                              : 103 KiB (0%)
Title                                    : Russian full
Language                                 : Russian
Default                                  : No
Forced                                   : No
Alternate group                          : 2
Encoded date                             : UTC 2018-02-02 09:38:34
Tagged date                              : UTC 2018-02-02 09:38:40
Subtitles For                            : 2
Forced Alternative                       : 4

Text #3
ID                                       : 6
Format                                   : Timed Text
Muxing mode                              : sbtl
Codec ID                                 : tx3g
Duration                                 : 1h 35mn
Bit rate mode                            : Variable
Bit rate                                 : 98 bps
Stream size                              : 68.2 KiB (0%)
Title                                    : English full
Language                                 : English
Default                                  : No
Forced                                   : No
Alternate group                          : 2
Encoded date                             : UTC 2018-02-02 09:38:34
Tagged date                              : UTC 2018-02-02 09:38:40

Menu #1
00:00:00.000                             : Chapter 1
00:11:44.746                             : Chapter 2
00:23:32.453                             : Chapter 3
00:31:09.785                             : Chapter 4
00:40:53.368                             : Chapter 5
00:53:48.392                             : Chapter 6
01:03:05.532                             : Chapter 7
01:16:07.688                             : Chapter 8
01:25:13.609                             : Chapter 9
01:32:10.900                             : Chapter 10

Menu #2
ID                                       : 7
Codec ID                                 : text
Duration                                 : 1h 41mn
Language                                 : English
Encoded date                             : UTC 2018-02-02 09:38:44
Tagged date                              : UTC 2018-02-02 09:38:44
Menu For                                 : 1
00:00:00.000                             : Chapter 1
00:11:44.746                             : Chapter 2
00:23:32.453                             : Chapter 3
00:31:09.785                             : Chapter 4
00:40:53.368                             : Chapter 5
00:53:48.392                             : Chapter 6
01:03:05.532                             : Chapter 7
01:16:07.688                             : Chapter 8
01:25:13.609                             : Chapter 9
01:32:10.900                             : Chapter 10
Bit rate mode                            : VBR
x264 [info]: frame I:2508  Avg QP:17.53  size: 36771
x264 [info]: frame P:143425 Avg QP:19.75  size:  6234
x264 [info]: mb I  I16..4: 16.5%  0.0% 83.5%
x264 [info]: mb P  I16..4:  1.1%  0.0%  4.1%  P16..4: 37.6% 15.9%  7.1%  0.0%  0.0%    skip:34.3%
x264 [info]: coded y,uvDC,uvAC intra: 72.5% 88.9% 72.6% inter: 20.2% 26.0% 9.9%
x264 [info]: i16 v,h,dc,p: 30% 18% 12% 40%
x264 [info]: i4 v,h,dc,ddl,ddr,vr,hd,vl,hu: 31% 16% 12%  6%  7%  8%  6%  7%  6%
x264 [info]: i8c dc,h,v,p: 42% 20% 26% 11%
x264 [info]: ref P L0: 76.4% 23.6%
x264 [info]: kb/s:1296.35

Релиз подготовлен для просмотра на Apple TV, iPad, iPhone, iPod Touch.
Для просмотра данного релиза на компьютере с ОС Windows рекомендуется использовать VLC media player

Трекер:  [ 02-Фев-2018 13:12 ]

  

Скачать .torrent

Размер .torrent файла 35 KB


Размер: 1.74 GB
Хэш (hash) релиза: 7d3cd63dcfd31c34c05a7e009b3cdf43c4e04d84

Еще никто не оставлял запись к записи скачать торрент iPad] ЛЕГО Ниндзяго Фильм The LEGO Ninjago Movie . Будь первым!

!Обратная связь