Rozen Maiden: Träumend | City Hunter | film de Pierre Coffin

Скачать через торрент Кейджо!!!!!!!! Keijo!!!!!!!! бесплатно Аниме Все серии на русском torrent

Статистика раздачи
Размер:  6.53 GB   |    Зарегистрирован:  4 месяца 19 дней   |    .torrent скачан:  75 раз   |   
Раздают:  1  
   
загрузка...
 
Автор Сообщение

Galfimbul

avatar Galfimbul



Кейджо!!!!!!!! / Keijo!!!!!!!! / 競女!!!!!!!!
Год выпуска: 2016 г.
Страна: Япония
Жанр: Комедия, Этти, Сенен, Спорт
Тип: TV
Продолжительность: 12 эп. по 24 мин.
Режиссер: Такахаси Хидэя
Студия: Xebec
Перевод:

Русские субтитры от Xander & Несущий Ересь

Русские субтитры от FooBoo & Хаттори
Озвучка:

Трехголосая от Lali & Silv & Ados (Anilibria) -sample
Описание:
В центре картины находится Каминаши Нозоми. Ей семнадцать лет, занимается гимнастикой, считается очень способной спортсменкой. Все спортивные колледжи пытаются завербовать её себе. К несчастью для них, у Нозоми свои планы. Самое главное в её жизни сейчас - деньги, так как её семья испытывает сильные финансовые трудности. И она считает, что в гимнастике много не заработаешь, да и, к тому же, риски получить сильную травму слишком высоки, а вместе с травмой придет конец и её карьере.

Поэтому она решает вступить в мир "Кейджо". В "Кейджо" девушки находятся на маленькое плавучей платформе и соревнуются друг с другом. Цель проста - вытолкнуть с платформы в воду соперниц, но толкаться можно только грудью или пятой точкой. Именно за эти правила и полюбился данный вид спорта японским зрителям. Сможет ли Нозоми погрузиться в этот взрослый и развратный мир Кейджо? Сможет ли она стать известной? Сможет ли она заработать высокие награды и принести благополучие в свою семью? Узнаете уже совсем скоро!
Информационные ссылки: World Art || AniDB || MAL
Качество: BDRip | Рип: [Leopard-Raws]
Тип релиза: Без хардсаба
Формат видео: MP4
Наличие линковки: Нет
Видео: AVC, 1280x720, 3082 kbps, 23.976 fps [8 bit]
Аудио:
1. Russian AC3, 48.0 KHz, 192 kbps, 2 ch (внешние) - [Anilibria];
2. Japanese AAC, 48.0 KHz, 192 kbps, 2 ch;
Субтитры:

Russian: ASS, внешние;
General Format : MPEG-4 Format profile : Base Media Codec ID : isom File size : 563 MiB Duration : 23mn 59s Overall bit rate mode : Variable Overall bit rate : 3 278 Kbps Encoded date : UTC 2016-10-06 20:19:40 Tagged date : UTC 2016-10-06 20:19:40 Video #1 ID : 1 Format : AVC Format/Info : Advanced Video Codec Format profile : [email protected] Format settings, CABAC : Yes Format settings, ReFrames : 4 frames Codec ID : avc1 Codec ID/Info : Advanced Video Coding Duration : 23mn 59s Bit rate : 3 082 Kbps Maximum bit rate : 16.0 Mbps Width : 1 280 pixels Height : 720 pixels Display aspect ratio : 16:9 Frame rate mode : Constant Frame rate : 23.976 fps Color space : YUV Chroma subsampling : 4:2:0 Bit depth : 8 bits Scan type : Progressive Bits/(Pixel*Frame) : 0.140 Stream size : 529 MiB (94%) Title : 264:[email protected] Writing library : x264 core 129 r2245+729M 1a52e03 Encoding settings : cabac=1 / ref=4 / deblock=1:1:-1 / analyse=0x3:0x113 / me=umh / subme=9 / psy=1 / fade_compensate=0.00 / psy_rd=1.00:0.00 / mixed_ref=1 / me_range=24 / chroma_me=1 / trellis=2 / 8x8dct=1 / cqm=0 / deadzone=21,11 / fast_pskip=1 / chroma_qp_offset=-2 / threads=8 / lookahead_threads=1 / sliced_threads=0 / nr=0 / decimate=1 / interlaced=0 / bluray_compat=0 / constrained_intra=0 / fgo=0 / bframes=9 / b_pyramid=2 / b_adapt=2 / b_bias=0 / direct=1 / weightb=1 / open_gop=0 / weightp=2 / keyint=240 / keyint_min=24 / scenecut=40 / intra_refresh=0 / rc=crf / mbtree=0 / crf=17.5 / qcomp=0.72 / qpmin=0 / qpmax=69 / qpstep=4 / ip_ratio=1.40 / pb_ratio=1.30 / aq=1:0.85 Encoded date : UTC 2016-10-06 20:19:40 Tagged date : UTC 2016-10-06 20:19:46 Color primaries : BT.709 Transfer characteristics : BT.709 Matrix coefficients : BT.709 Audio #2 ID : 2 Format : AAC Format/Info : Advanced Audio Codec Format profile : LC Codec ID : 40 Duration : 23mn 59s Bit rate mode : Variable Bit rate : 192 Kbps Maximum bit rate : 242 Kbps Channel(s) : 2 channels Channel positions : Front: L R Sampling rate : 48.0 KHz Compression mode : Lossy Stream size : 32.9 MiB (6%) Language : Japanese Encoded date : UTC 2016-10-06 20:18:45 Tagged date : UTC 2016-10-06 20:19:46

01. Академия Кейджо Сейтоичи!!!! / Setouchi Keijo Training School!!!!
02. Сближающий толчок задом!!!! / The Hip Toss Brings Us Together!!!!
03. Вакуумная задопушка!!!! / Vacuum Butt Cannon!!!!
04. Битва быстрейших попцов!!!! / The Battle for the Fastest Butt!!!!
05. Цербер с автопилотом!!!! / Full-Auto Cerberus!!!!
06. Заманчивый лагерь в Киото!!!! / Alluring Kyoto Trip!!!!
07. Куда ведёт репка!!!! / Where the Turnips Lead!!!!
08. Напряженная война восток-запад!!!! / The Dramatic East-West War!!!!
09. Правитель "джунглей"!!!! / Ruler of the Jungle Gym!!!!
10. Второй матч Восточно-Западной войны!!!! / The Second East-West War Race!!!!
11. Замок последнего матча!!!! / The Castle of the Final Match!!!!
12. Жаркое сражение пятых точек!!!! / The Heated Battle`s Rear-End!!!!
...5294455
- наличие озвучки



Добавлена Вторая серия [18.10.2016]

Добавлена Третья серия [24.10.2016]

Добавлена Четвертая серия [29.10.2016]

Добавлена Пятая серия [04.11.2016]

Добавлена Шестая серия [11.11.2016]

Добавлена Седьмая серия [18.11.2016]

Добавлена Восьмая серия [26.11.2016]

Добавлена Девятая серия [02.12.2016]

Добавлена Десятая серия [09.12.2016]

Добавлена Одиннадцатая серия [16.12.2016]



Раздача обновлена. Добавлена Двенадцатая серия [23.12.2016]



Трекер:  [ 02-Фев-2018 11:30 ]

  

Скачать .torrent

Размер .torrent файла 23 KB


Размер: 6.53 GB
Хэш (hash) релиза: 503018d9bb1926a81917b77fb74377e24ff7812f
Подписка на обновления:

Торренты, похожие на Кейджо!!!!!!!! Keijo!!!!!!!! скачать торрент

Форум Название Автор Размер S L Добавлен
Аниме | HD Rips ·· Кейджо!!!!!!!! / Keijo!!!!!!!! [TV+Special] [6+0 из 12+6] [без хардсаба] [JAP+SUB] [2016, комедия, спорт, сёнэн, этти, BDRemux] [1080p] Galfimbul 4476843658541.69 GB 0 0 1499637740

01:02

10-Июл-17

Аниме | HD Rips ·· Кейджо!!!!!!!! / Keijo!!!!!!!! / Кейдзо!!!!!!!! [TV+Special] [01-06+0 из 12+6] [Без хардсаба] [JAP+SUB] [2016, комедия, спорт, сёнэн, этти, BDRip] [1080p] Galfimbul 2014361140118.76 GB 0 0 1493654850

19:07

1-Май-17

Аниме | HD Rips ·· Кейджо!!!!!!!! / Keijo!!!!!!!! / Кейдзо!!!!!!!! [TV] [01-06 из 12] [Без хардсаба] [JAP+SUB] [2016, комедия, спорт, сёнэн, этти, BDRip] [720p] Galfimbul 43284110744.03 GB 0 0 1493654843

19:07

1-Май-17

Аниме | Rips ·· Кейджо!!!!!!!! / Keijo!!!!!!!! [TV] [12 из 12] [Без хардсаба] [RUS(ext), JAP, SUB] [2016, Комедия, Этти, Сенен, Спорт, HDTVRip] [720p] Galfimbul 72810460626.78 GB 0 0 1483156708

06:58

31-Дек-16

Аниме | Rips ·· Кейджо!!!!!!!! / Keijo!!!!!!!! [TV] [12 из 12] [Без хардсаба] [JAP, SUB] & [01-10 из 12] [RUS(ext)] [2016, Комедия, Этти, Сенен, Спорт, HDTVRip] [720p] Galfimbul 72116352146.72 GB 0 0 1482490770

13:59

23-Дек-16

Аниме | Rips ·· Кейджо!!!!!!!! / Keijo!!!!!!!! [TV] [01-11 из 12] [Без хардсаба] [JAP, SUB] & [01-09 из 12] [RUS(ext)] [2016, Комедия, Этти, Сенен, Спорт, HDTVRip] [720p] Galfimbul 65798286436.13 GB 0 0 1481880669

12:31

16-Дек-16

Аниме | Rips ·· Кейджо!!!!!!!! / Keijo!!!!!!!! [TV] [01-09 из 12] [Без хардсаба] [JAP, SUB] & [01-08 из 12] [RUS(ext)] [2016, Комедия, Этти, Сенен, Спорт, HDTVRip] [720p] Galfimbul 54014115075.03 GB 0 0 1480687722

17:08

2-Дек-16

Аниме | Rips ·· Кейджо!!!!!!!! / Keijo!!!!!!!! [TV] [01-08 из 12] [Без хардсаба] [JAP, SUB] & [01-07 из 12] [RUS(ext)] [2016, Комедия, Этти, Сенен, Спорт, HDTVRip] [720p] Galfimbul 46799206024.36 GB 0 0 1480093605

20:06

25-Ноя-16

Аниме | Rips ·· Кейджо!!!!!!!! / Keijo!!!!!!!! [TV] [01-07 из 12] [Без хардсаба] [JAP, SUB] & [01-06 из 12] [RUS(ext)] [2016, Комедия, Этти, Сенен, Спорт, HDTVRip] [720p] Galfimbul 41141061813.83 GB 0 0 1479457828

11:30

18-Ноя-16

Аниме | Rips ·· Кейджо!!!!!!!! / Keijo!!!!!!!! [TV] [01-06 из 12] [Без хардсаба] [JAP, SUB] & [01-05 из 12] [RUS(ext)] [2016, Комедия, Этти, Сенен, Спорт, HDTVRip] [720p] Galfimbul 35622876563.32 GB 0 0 1478855263

12:07

11-Ноя-16

Аниме | Rips ·· Кейджо!!!!!!!! / Keijo!!!!!!!! [TV] [01-05 из 12] [Без хардсаба] [JAP, SUB] & [01-04 из 12] [RUS(ext)] [2016, Комедия, Этти, Сенен, Спорт, HDTVRip] [720p] Galfimbul 29848399502.78 GB 0 0 1478274049

18:40

4-Ноя-16

Аниме | Rips ·· Кейджо!!!!!!!! / Keijo!!!!!!!! [TV] [01-04 из 12] [Без хардсаба] [JAP, SUB] & [01-03 из 12] [RUS(ext)] [2016, Комедия, Этти, Сенен, Спорт, HDTVRip] [720p] Galfimbul 24197430272.25 GB 0 0 1477713618

07:00

29-Окт-16

Аниме | Rips ·· Кейджо!!!!!!!! / Keijo!!!!!!!! [TV] [01-03 из 12] [Без хардсаба] [RUS(ext), JAP, SUB] [2016, Комедия, Этти, Сенен, Спорт, HDTVRip] [720p] Galfimbul 17507464911.63 GB 0 0 1477275869

05:24

24-Окт-16

Аниме | Rips ·· Кейджо!!!!!!!! / Keijo!!!!!!!! [TV] [01-02 из 12] [Без хардсаба] [RUS(ext), JAP, SUB] [2016, Комедия, Этти, Сенен, Спорт, HDTVRip] [720p] Galfimbul 12438547311.16 GB 0 0 1476753993

04:26

18-Окт-16

Аниме | Rips ·· Кейджо!!!!!!!! / Keijo!!!!!!!! [TV] [01 из 12] [Без хардсаба] [RUS(ext), JAP, SUB] [2016 г., Комедия, Этти, Сенен, Спорт, HDTVRip] [720p] Galfimbul 659371236629 MB 0 0 1476235767

04:29

12-Окт-16

Аниме | Rips ·· Кейджо!!!!!!!! / Keijo!!!!!!!! [TV] [01 из 12] [Без хардсаба] [RUS(ext), JAP, SUB] [2016 г., Комедия, Этти, Сенен, Спорт, HDTVRip] [720p] Galfimbul 624673349596 MB 0 0 1476063109

04:31

10-Окт-16

Еще никто не оставлял запись к записи скачать торрент Кейджо!!!!!!!! Keijo!!!!!!!! . Будь первым!

!Обратная связь