The Finder | 4.2 02 h 18 minRota Comando | More Details

Скачать через торрент Момокури Momokuri бесплатно Аниме Все серии на русском torrent

Статистика раздачи
Размер:  4.11 GB   |    Зарегистрирован:  4 месяца 20 дней   |    .torrent скачан:  27 раз   |   
Раздают:  1  
   
загрузка...
 
Автор Сообщение

Galfimbul

avatar Galfimbul


Момокури / Momokuri / Момо и Кури

Страна: Япония
Год выпуска: 2015
Жанр: Комедия, романтика, повседневность
Тип: ONA
Продолжительность: 13 эп, ~24 мин. серия
Режиссер: Хирайкэ Ёсимаса
Студия: Satelight

Описание: Сюжет разворачивается вокруг Юки Курихары, девочки, которой наконец предоставляется возможность осуществить желание — встречаться с её возлюбленным по имени Шинья Момозуки. На первый взгляд она кажется обычной и очень милой девочкой. Однако Юки одержима Момо: она записывает все его действия и никогда не упускает шанс застать его в неловкий момент. С другой стороны — Момо, не имеющий опыта в отношениях, просто хочет сделать Юки счастливой.

Качество: WEBRip
Тип релиза: Без хардсаба
Формат видео: MKV
Наличие линковки: Нет
Релиз/Автор рипа: HorribleSubs
Видео: x264 (8 bit), 1280x720, ~1800 Kbps, 23.976 fps
Аудио JAP: AAC, 128 kbps, 44.1 kHz, 2ch Язык Японский
Субтитры RUS: Встроенные Язык субтитров русский ; Перевод: AniPlay Перевод: Zdorro Редактура: Eury
GeneralUnique ID : 173150165235995493702718732018339050618 (0x824382416550B5CF4B817ED22B24747A)Complete name : E:\Anime\Momokuri - 01-26[720p]\[HorribleSubs] Momokuri - 01+02 [720p].mkvFormat : MatroskaFormat version : Version 4 / Version 2File size : 323 MiBDuration : 23 min 48 sOverall bit rate : 1 895 kb/sEncoded date : UTC 2018-01-31 18:17:04Writing application : mkvmerge v20.0.0 ('I Am The Sun') 64-bitWriting library : libebml v1.3.5 + libmatroska v1.4.8Attachments : OpenSans-Semibold.ttf

VideoID : 1Format : AVCFormat/Info : Advanced Video CodecFormat profile : [email protected] settings : CABAC / 6 Ref FramesFormat settings, CABAC : YesFormat settings, ReFrames : 6 framesCodec ID : V_MPEG4/ISO/AVCDuration : 23 min 41 sBit rate : 1 776 kb/sWidth : 1 280 pixelsHeight : 720 pixelsDisplay aspect ratio : 16:9Frame rate mode : VariableFrame rate : 23.976 (23976/1000) FPSColor space : YUVChroma subsampling : 4:2:0Bit depth : 8 bitsScan type : ProgressiveBits/(Pixel*Frame) : 0.080Stream size : 300 MiB (93%)Writing library : x264 core 120 r2120 0c7dab9Encoding settings : cabac=1 / ref=6 / deblock=1:1:1 / analyse=0x3:0x113 / me=umh / subme=8 / psy=1 / psy_rd=0.40:0.00 / mixed_ref=1 / me_range=16 / chroma_me=1 / trellis=1 / 8x8dct=1 / cqm=0 / deadzone=21,11 / fast_pskip=1 / chroma_qp_offset=-2 / threads=4 / sliced_threads=0 / nr=0 / decimate=1 / interlaced=0 / bluray_compat=0 / constrained_intra=0 / bframes=3 / b_pyramid=2 / b_adapt=2 / b_bias=0 / direct=3 / weightb=1 / open_gop=0 / weightp=2 / keyint=250 / keyint_min=23 / scenecut=40 / intra_refresh=0 / rc_lookahead=50 / rc=2pass / mbtree=1 / bitrate=1776 / ratetol=1.0 / qcomp=0.60 / qpmin=0 / qpmax=69 / qpstep=4 / cplxblur=20.0 / qblur=0.5 / vbv_maxrate=3552 / vbv_bufsize=8880 / nal_hrd=none / ip_ratio=1.40 / aq=1:0.60Default : YesForced : No

AudioID : 2Format : AACFormat/Info : Advanced Audio CodecFormat profile : LCCodec ID : A_AAC-2Duration : 23 min 42 sBit rate : 128 kb/sChannel(s) : 2 channelsChannel positions : Front: L RSampling rate : 44.1 kHzFrame rate : 43.066 FPS (1024 SPF)Compression mode : LossyStream size : 21.7 MiB (7%)Language : JapaneseDefault : YesForced : No

TextID : 3Format : ASSCodec ID : S_TEXT/ASSCodec ID/Info : Advanced Sub Station AlphaDuration : 23 min 48 sBit rate : 144 b/sCount of elements : 347Compression mode : LosslessStream size : 25.1 KiB (0%)Title : Ru-SubLanguage : RussianDefault : YesForced : No


Трекер:  [ 02-Фев-2018 01:01 ]

  

Скачать .torrent

Размер .torrent файла 22 KB


Размер: 4.11 GB
Хэш (hash) релиза: 8c652997a54cab845cd88dd384cbb64d2b37b2ac
Подписка на обновления:

Торренты, похожие на Момокури Momokuri скачать торрент

Форум Название Автор Размер S L Добавлен
Аниме | Rips ·· Момокури / Momokuri / Момо и Кури (Хирайкэ Ёсимаса) [ONA] [01 из 12] [Без хардсаба] [JAP+SUB] [2015 г., комедия, романтика, повседневность, WEBRip] Galfimbul 4577316244 MB 0 0 1453692797

06:33

25-Янв-16

Еще никто не оставлял запись к записи скачать торрент Момокури Momokuri . Будь первым!

!Обратная связь