Touch Season 1-2 | Training Days Season 1 | Travelers Season 1

Скачать через торрент Мост Bron Фильм бесплатно в хорошем качестве torrent

Скачивайте на UnionPeer.org фильмы через торрент без регистрации. Новинки кино в хорошем качестве через торрент. На UnionPeer.org можно скачать через торрент фильмы 2014 и 2015 годов. Самые новые фильмы.

Скачать торрент Мост Bron бесплатно через .torrent фильм мультфильм сериал

Если у вас наблюдаются проблемы со скриншотами, переходом по ссылками, скачиванием торрентов - проблемы в блокировщике рекламы AdBlock. #хорошегоДня!


Статистика раздачи
Размер:  5.47 GB   |    Зарегистрирован:  1 час 11 минут   |    .torrent скачан:  103 раза   |   
Раздают:  1  
   
Загрузка...
 
Автор Сообщение

Galfimbul

avatar Galfimbul


Мост / Bron / Broen
Год выпуска: 2018
Страна: Швеция, Дания, Германия
Жанр: триллер, криминал, детектив
Продолжительность: ~00:57:00
Перевод: Профессиональный (многоголосый закадровый) | Amedia
Режиссёр: Хенрик Георгссон, Румле Хаммерих, Шарлотта Зилинг

В ролях: София Хелин, Ким Бодния, Даг Малмберг, Пак Шарбау, Эмиль Бирк Хартманн, Рафаэль Петтерссон, Анетте Линдбэк, Сэйд Лиг, Кристина Бранден, Сара Боберг

Описание: Мост, 4 сезон, как и все предыдущие, также начнется со страшного убийства. Создатели обещают, что это преступление будет не таким значимым событием для общественности, зато само убийство станет более жутким и ужасным. Случится же новое страшное убийство на Хэллоуин, на датской стороне Эресуннского моста. Все потому, что этот праздник нечисти очень популярен именно в Дании. Создатели сериала раз за разом возвращают зрителей в это место, потому что считают его поистине мрачным.


Качество: HDTVRip
Формат: AVI
Видео: 720x400, 25.000 fps, ~1500 kbps, 0.208 bit/pixel
Аудио Russian: AC-3, 48,0 kHz, 2 ch, 192 kbps | Amedia
Субтитры: Отсутствуют
Реклама: Отсутствует

ОбщееПолное имя : E:\Broen.S04E01.Amedia.aviФормат : AVIФормат/Информация : Audio Video InterleaveРазмер файла : 701 МбайтПродолжительность : 57 м. 32 с.Общий поток : 1703 Кбит/секПрограмма кодирования : VirtualDubMod 1.5.10.2 (build 2540/release)Библиотека кодирования : VirtualDubMod build 2540/release

ВидеоИдентификатор : 0Формат : MPEG-4 VisualПрофиль формата : Advanced [email protected]Настройки формата : BVOP2Параметр BVOP формата : 2Параметр QPel формата : НетПараметр GMC формата : Без точки переходаПараметр матрицы формата : Default (MPEG)Идентификатор кодека : XVIDИдентификатор кодека/Подсказка : XviDПродолжительность : 57 м. 32 с.Битрейт : 1501 Кбит/секШирина : 720 пикселейВысота : 400 пикселейСоотношение сторон : 16:9Частота кадров : 25,000 кадров/секЦветовое пространство : YUVСубдискретизация насыщенности : 4:2:0Битовая глубина : 8 битТип развёртки : ПрогрессивнаяМетод сжатия : С потерямиБит/(Пиксели*Кадры) : 0.208Размер потока : 618 Мбайт (88%)Библиотека кодирования : XviD 1.2.1 (UTC 2008-12-04)

АудиоИдентификатор : 1Формат : AC-3Формат/Информация : Audio Coding 3Идентификатор кодека : 2000Продолжительность : 57 м. 32 с.Вид битрейта : ПостоянныйБитрейт : 192 Кбит/секКаналы : 2 каналаРасположение каналов : Front: L RЧастота : 48,0 КГцЧастота кадров : 31,250 кадров/сек (1536 SPF)Битовая глубина : 16 битМетод сжатия : С потерямиРазмер потока : 79,0 Мбайт (11%)Выравнивание : Разделение по промежуткамПродолжительность промежутка : 40 мс. (1,00 видеокадр)Время предзагрузки промежутка : 500 мс.ServiceKind/String : Complete Main

Внимание! Раздача ведётся путём добавления новых серий; при каждом добавлении создаётся новый торрент. Чтобы начать докачку новой серии, пользователям необходимо сделать следующее:
(1) остановить скачивание,
(2) удалить старый торрент у себя из клиента (старые серии удалять не надо),
(3) скачать новый торрент и запустить его у себя в клиенте вместо старого, при этом указать клиенту путь в старую папку куда и должно происходить скачивание новых серий.

Ваш клиент при этом должен произвести хеширование (проверку) старой папки (если не производит сам - помогите ему сделать это), и будет докачивать только те серии которых у вас ещё нет. Старые серии при этом не удаляются, а продолжают раздаваться!

Eсли вы уже удалили старые серии, то предотвратить повторную закачку старых серий можно, отжав галочку в соответствующих местах при запуске нового торрента. По возможности, желательно не удалять старые серии как можно дольше чтобы релизёр не столько продолжал раздавать старые серии, а смог сконцентрироваться на новых.


Трекер:  [ 19-Фев-2018 21:24 ]

  

Скачать .torrent

Размер .torrent файла 110 KB


Размер: 5.47 GB
Хэш (hash) релиза: 18540dd214da95d280c62376d9a44ea1364e75e1
Подписка на обновления:

Торренты, похожие на Мост Bron скачать торрент

Форум Название Автор Размер S L Добавлен
Зарубежные сериалы ·· Мост / Bron / Broen / Сезон: 4 / Серии: 1-4 из 8 (Хенрик Георгссон, Румле Хаммерих, Шарлотта Зилинг) [2018, Швеция, Дания, Германия, триллер, криминал, детектив, HDTVRip 1080p] MVO (Amedia) + Original Galfimbul 1139254610310.61 GB 0 0 1516822027

22:27

24-Янв-18

Зарубежные сериалы ·· Мост / Bron/Broen / Сезон: 4 / Серии: 1-2 из 8 (Хенрик Георгсон) [2018, США, Криминал, триллер, детектив, мистика, драма, HDTVRip] MVO (Jaskier) + Original Galfimbul 15528693761.45 GB 0 0 1516210045

20:27

17-Янв-18

Зарубежные сериалы ·· Мост / Bron/Broen / Сезон: 4 / Серии: 1-2 из 8 (Хенрик Георгсон) [2018, США, Криминал, триллер, детектив, мистика, драма, HDTV 720p] MVO (Jaskier) + Original Galfimbul 23558104152.19 GB 0 0 1516209970

20:26

17-Янв-18

Зарубежные сериалы ·· Мост / Bron / Broen / Сезон: 4 / Серии: 1-2 из 8 (Хенрик Георгссон, Румле Хаммерих, Шарлотта Зилинг) [2018, Швеция, Дания, Германия, триллер, криминал, детектив, HDTVRip 720p] Original + Rus Sub (Скандинавский Калейдоскоп) Galfimbul 23023687332.14 GB 0 0 1515939895

17:24

14-Янв-18

Зарубежные сериалы ·· Мост / Bron / Broen / Сезон: 4 / Серии: 1 из 8 (Хенрик Георгссон, Румле Хаммерих, Шарлотта Зилинг) [2018, Швеция, Дания, Германия, триллер, криминал, детектив, WEB-DL 720p] MVO (Amedia) + Original Galfimbul 11220904841.05 GB 0 0 1514924687

23:24

2-Янв-18

Зарубежные сериалы ·· Мост / Bron / Broen / Сезон: 4 / Серии: 1 из 8 (Хенрик Георгссон, Румле Хаммерих, Шарлотта Зилинг) [2018, Швеция, Дания, Германия, триллер, криминал, детектив, WEB-DLRip] MVO (Amedia) Galfimbul 734822400701 MB 0 0 1514920966

22:22

2-Янв-18

bot

Раздача обновлена!
Перекачайте торрент-файл.

bot

Раздача обновлена!
Перекачайте торрент-файл.

bot

Раздача обновлена!
Перекачайте торрент-файл.

Хотите добавить комментарий к записи скачать торрент Мост Bron

!Обратная связь