The Terror | John Roberts | Bonnie Clyde

Скачать через торрент Дежурный врач Сезон: 1 Фильм бесплатно в хорошем качестве torrent

Скачивайте на UnionPeer.org фильмы через торрент без регистрации. Новинки кино в хорошем качестве через торрент. На UnionPeer.org можно скачать через торрент фильмы 2014 и 2015 годов. Самые новые фильмы.

Скачать торрент Дежурный врач Сезон: 1 бесплатно через .torrent фильм мультфильм сериал

Статистика раздачи
Размер:  21.54 GB   |    Зарегистрирован:  5 месяцев 1 день   |    .torrent скачан:  401 раз   |   
Раздают:  1  
   
загрузка...
 
Автор Сообщение

Galfimbul

avatar Galfimbul


Дежурный врач

Год выпуска: 2016
Производство: FILM.UA
Жанр: драма, мелодрама, медицина
Продолжительность: ~00:44:00 серия
Субтитры: нет

Режиссёр: Константин Денесюк, Александр Онуфриев

В ролях: Михаил Жонин, Ирина Ткаленко, Руслан Сокольник, Надежда Левченко, Лилия Майборода, Виктория Лушникова, Валентина Вовченко, Леонид Попадько, Елена Новикова, Светлана Князева, Михаил Романов, Богдан Олейник, Екатерина Духленко, Виктория Левченко, Виктор Данилюк, Виктор Полторацкий, Ирина Малыгина, Вероника Лукьяненко, Екатерина Марченко, Артем Каюн, Кристина Мельниченко, Владимир Мельник, Андрей Мерзликин, Николай Калинин, Мария Тарасова, Ева Шевченко-Головко, Вячеслав Стасенко, Алиса Лукшина, Александр Онуфриев, Вероника Братусина

Описание: 24 часа в сутки, семь дней в неделю, без перерывов и выходных! Именно так работает обычная больница скорой помощи. Каждый день сюда попадают десятки новых пациентов. У каждого — своя история болезни, за которой скрываются реальные проблемы и личные драмы. И дежурные врачи становятся невольными участниками этих драм. Иногда они просто наблюдают ход событий, а иногда — сами вмешиваются в жизни пациентов, помогая им не только выздороветь, но и принять судьбоносные решения.

Реклама: Нет.

Кинопоиск
Sample

Качество: WEBRip - Files-x
Формат: AVI
Видео кодек: XviD
Аудио кодек: AC3
Видео: 720x400 (1.80:1), 25 fps, XviD build 73 ~1500 kbps avg, 0.211 bit/pixel
Аудио: 48.0 kHz, AC3 Dolby Digital, 2/0 (L,R) ch, ~ 192 kbps
Раздача ведётся путём добавления новых серий, при каждом добавлении создаётся новый торрент. Чтобы начать докачку новой серии, пользователям необходимо сделать следующее:

- Остановить скачивание.
- Удалить старый торрент у себя из клиента (старые серии удалять не надо).
- Скачать новый торрент и запустить его у себя в клиенте вместо старого, при этом указать клиенту путь в старую папку куда и должно происходить скачивание новых серий.

Ваш клиент при этом должен произвести хеширование (проверку) старой папки (если не производит сам - помогите ему сделать это), и будет докачивать только те серии которых у вас ещё нет. Старые серии при этом не удаляются, а продолжают раздаваться!
Если вы уже удалили старые серии, то предотвратить повторную закачку старых серий можно, отжав галочку в соответствующих местах при запуске нового торрента. По возможности, желательно не удалять старые серии как можно дольше, чтобы релизер не столько продолжал раздавать старые серии, а смог сконцентрироваться на новых.
General
Complete name : D:\Дежурный врач-2017.WEB-DLRip.Files-x\01.Дежурный врач-2017.WEB-DLRip.Files-x.avi
Format : AVI
Format/Info : Audio Video Interleave
File size : 549 MiB
Duration : 44mn 38s
Overall bit rate : 1 720 Kbps
Writing application : VirtualDubMod 1.5.10.3 | www.virtualdub-fr.org || (build 2550/release)
Writing library : VirtualDubMod build 2550/release

Video
ID : 0
Format : MPEG-4 Visual
Format profile : Advanced [email protected]
Format settings, BVOP : 1
Format settings, QPel : No
Format settings, GMC : No warppoints
Format settings, Matrix : Custom
Codec ID : XVID
Codec ID/Hint : XviD
Duration : 44mn 38s
Bit rate : 1 519 Kbps
Width : 720 pixels
Height : 400 pixels
Display aspect ratio : 16:9
Frame rate : 25.000 fps
Color space : YUV
Chroma subsampling : 4:2:0
Bit depth : 8 bits
Scan type : Progressive
Compression mode : Lossy
Bits/(Pixel*Frame) : 0.211
Stream size : 485 MiB (88%)
Writing library : XviD 73

Audio
ID : 1
Format : AC-3
Format/Info : Audio Coding 3
Mode extension : CM (complete main)
Format settings, Endianness : Big
Codec ID : 2000
Duration : 44mn 38s
Bit rate mode : Constant
Bit rate : 192 Kbps
Channel count : 2 channels
Channel positions : Front: L R
Sampling rate : 48.0 KHz
Bit depth : 16 bits
Compression mode : Lossy
Stream size : 61.3 MiB (11%)
Alignment : Split accross interleaves
Interleave, duration : 40 ms (1.00 video frame)
Interleave, preload duration : 500 ms


Трекер:  [ 17-Мар-2018 19:36 ]

  

Скачать .torrent

Размер .torrent файла 111 KB


Размер: 21.54 GB
Хэш (hash) релиза: 6189b7831871babd45cd55777bfd38e2f371e795
Подписка на обновления:

Торренты, похожие на Дежурный врач Сезон: 1 скачать торрент

Форум Название Автор Размер S L Добавлен
Российские сериалы ·· Дежурный врач / Сезон: 2 / Серии: 1-14 из 40 (Константин Денесюк, Александр Онуфриев) [2017, драма, мелодрама, медицина, WEBRip] Galfimbul 80903413767.53 GB 0 0 1528359153

11:12

7-Июн-18

bot

Раздача обновлена!
Перекачайте торрент-файл.

bot

Раздача обновлена!
Перекачайте торрент-файл.

bot

Раздача обновлена!
Перекачайте торрент-файл.

bot

Раздача обновлена!
Перекачайте торрент-файл.

bot

Раздача обновлена!
Перекачайте торрент-файл.

bot

Раздача обновлена!
Перекачайте торрент-файл.

bot

Раздача обновлена!
Перекачайте торрент-файл.

bot

Раздача обновлена!
Перекачайте торрент-файл.

bot

Раздача обновлена!
Перекачайте торрент-файл.

bot

Раздача обновлена!
Перекачайте торрент-файл.

bot

Раздача обновлена!
Перекачайте торрент-файл.

bot

Раздача обновлена!
Перекачайте торрент-файл.

bot

Раздача обновлена!
Перекачайте торрент-файл.

bot

Раздача обновлена!
Перекачайте торрент-файл.

bot

Раздача обновлена!
Перекачайте торрент-файл.

bot

Раздача обновлена!
Перекачайте торрент-файл.

bot

Раздача обновлена!
Перекачайте торрент-файл.

bot

Раздача обновлена!
Перекачайте торрент-файл.

bot

Раздача обновлена!
Перекачайте торрент-файл.

bot

Раздача обновлена!
Перекачайте торрент-файл.

bot

Раздача обновлена!
Перекачайте торрент-файл.

Хотите добавить комментарий к записи скачать торрент Дежурный врач Сезон: 1

!Обратная связь