Franzis HDR projects 2018 professional 6.64.02783
Avanquest InPixio Photo Clip Professional 7.7.0

[ATV3] The LEGO Ninjago Movie torrent

, , - AdBlock. #!


5.61 GB   |    :  23    |    .torrent :  10    |   
1  
   
...
 

Galfimbul

avatar Galfimbul


/ The LEGO Ninjago Movie


6.239 / 10 6.00 / 10
: 2017
: ,
: , , , ,
: 01:41:26

: ()
:
C: , ,
:
: , ,
: , ,
:
:
: , ,
: , ,
: , , , , , , , , ,

: $70 000 000
: $59 281 555
: + $63 800 000 = $123 081 555
: $3 507 031

: 20 2017
(): 21 2017, -

: 27 2017, Warner Bros.

: - , , , . - , , , , , . , ; , , , .
: Blu-Ray (BlueBird)
: BDRip
: HD (1080p)
: M4V
: H.264, 1920x800, 2.40:1, 6 500 Kbps, 23.976 (24000/1001) fps

1: / (), AAC / 2.0 / 160 Kbps / 48.0 KHz
2: / , AAC / 2.0 / 160 Kbps / 48.0 KHz
3: / (), AC-3 / 5.1 / 448 Kbps / 48.0 KHz
4: / , AC-3 / 5.1 / 640 Kbps / 48.0 KHz

1:
2:
3:
Sort Name: LEGO Ninjago Movie
XID: Apple:vendor_id:2017-777684
contentID: 1280615181
Copyright: 2017 Warner Bros. Entertainment Inc. and Ratpac-Dune Entertainment LLC. LEGO, the LEGO logo, the Minifigure and NINJAGO are copyrights and of the LEGO Group. Copyright 2017 The LEGO Group.
Screenwriters: , ,
Producers: , ,
Director: , ,
Cast: , , , , , , , , ,
Studio: Warner Bros.
Rating Annotation: Rated PG for some mild action and rude humor.
Rating: 3
Long Description: - , , , . - , , , , , . , ; , , , .
Description: - , , , . - , , , , , ...
Release Date: 2017-09-20T08:00:00Z
Genre: Kids & Family
Artist: Bob Logan, Charlie Bean & Paul Fisher
Name: The LEGO Ninjago Movie
General
Complete name : /Users/imac/HandBrake/The.LEGO.Ninjago.Movie.1080p.HD.m4v
Format : MPEG-4
Codec ID : M4V (M4V /M4A /mp42/isom)
File size : 5.61 GiB
Duration : 1h 41mn
Overall bit rate mode : Variable
Overall bit rate : 7 916 Kbps
Movie name : The LEGO Ninjago Movie
Performer : Bob Logan, Charlie Bean & Paul Fisher
Director : / /
Actor : / / / / / / / / /
Screenplay by : / /
Producer : / /
Production studio : Warner Bros.
Genre : Kids & Family
ContentType : Short Film
Description : - , , , . - , , , , , ...
Recorded date : UTC 2017-09-20 08:00:00
Encoded date : UTC 2018-02-01 08:56:18
Tagged date : UTC 2018-02-01 08:59:34
Copyright : 2017 Warner Bros. Entertainment Inc. and Ratpac-Dune Entertainment LLC. LEGO, the LEGO logo, the Minifigure and NINJAGO are copyrights and of the LEGO Group. Copyright 2017 The LEGO Group.
Cover : Yes
Rating : None
Title/Sort : LEGO Ninjago Movie
LongDescription : - , , , . - , , , , , . , ; , , , .
AppleStoreCatalogID : 1280615181
Vendor : Apple:vendor_id:2017-777684
ContentRating : mpaa|PG|200|Rated PG for some mild action and rude humor.

Video #1
ID : 1
Format : AVC
Format/Info : Advanced Video Codec
Format profile : [email protected]
Format settings : CABAC / 4 Ref Frames
Format settings, CABAC : Yes
Format settings, ReFrames : 4 frames
Codec ID : avc1
Codec ID/Info : Advanced Video Coding
Duration : 1h 41mn
Source duration : 1h 41mn
Bit rate : 6 500 Kbps
Width : 1 920 pixels
Height : 800 pixels
Display aspect ratio : 2.40:1
Frame rate mode : Variable
Frame rate : 23.976 (24000/1001) fps
Minimum frame rate : 23.974 fps
Maximum frame rate : 23.981 fps
Color space : YUV
Chroma subsampling : 4:2:0
Bit depth : 8 bits
Scan type : Progressive
Bits/(Pixel*Frame) : 0.177
Stream size : 4.61 GiB (82%)
Source stream size : 4.61 GiB (82%)
Title : Main Program
Writing library : x264 core 148 r2708 86b7198
Encoding settings : cabac=1 / ref=4 / deblock=1:-2:-2 / analyse=0x3:0x133 / me=umh / subme=10 / psy=1 / psy_rd=1.00:0.15 / mixed_ref=1 / me_range=32 / chroma_me=1 / trellis=2 / 8x8dct=1 / cqm=0 / deadzone=21,11 / fast_pskip=1 / chroma_qp_offset=-3 / threads=25 / lookahead_threads=6 / sliced_threads=0 / nr=0 / decimate=0 / interlaced=0 / bluray_compat=0 / constrained_intra=0 / bframes=16 / b_pyramid=2 / b_adapt=2 / b_bias=0 / direct=3 / weightb=1 / open_gop=0 / weightp=2 / keyint=240 / keyint_min=24 / scenecut=40 / intra_refresh=0 / rc_lookahead=40 / rc=2pass / mbtree=1 / bitrate=6500 / ratetol=1.0 / qcomp=0.70 / qpmin=0 / qpmax=69 / qpstep=4 / cplxblur=20.0 / qblur=0.5 / ip_ratio=1.40 / aq=1:1.00
Language : English
Encoded date : UTC 2018-02-01 08:56:18
Tagged date : UTC 2018-02-01 08:56:32
Color range : Limited
Color primaries : BT.709
Transfer characteristics : BT.709
Matrix coefficients : BT.709
Menus : 9,10

Video #2
ID : 10
Format : JPEG
Codec ID : jpeg
Duration : 1h 41mn
Bit rate mode : Variable
Bit rate : 648 bps
Width : 640 pixels
Height : 266 pixels
Display aspect ratio : 2.40:1
Frame rate mode : Variable
Frame rate : 0.002 fps
Minimum frame rate : 0.001 fps
Maximum frame rate : 0.002 fps
Color space : YUV
Chroma subsampling : 4:2:0
Bit depth : 8 bits
Compression mode : Lossy
Bits/(Pixel*Frame) : 1.903
Stream size : 396 KiB (0%)
Title : Chapter Images
Language : English
Default : No
Encoded date : UTC 2018-02-01 08:56:42
Tagged date : UTC 2018-02-01 08:56:42
Menu For : 1

Audio #1
ID : 2
Format : AAC
Format/Info : Advanced Audio Codec
Format profile : LC
Codec ID : mp4a-40-2
Duration : 1h 41mn
Source duration : 1h 41mn
Bit rate mode : Variable
Bit rate : 159 Kbps
Maximum bit rate : 239 Kbps
Channel(s) : 2 channels
Channel positions : Front: L R
Sampling rate : 48.0 KHz
Frame rate : 46.875 fps (1024 SPF)
Compression mode : Lossy
Stream size : 115 MiB (2%)
Source stream size : 115 MiB (2%)
Title : Russian Stereo
Language : Russian
Default : Yes
Alternate group : 1
Encoded date : UTC 2018-02-01 08:56:18
Tagged date : UTC 2018-02-01 08:56:36
Fallback From : 4
Subtitles : 6,7

Audio #2
ID : 3
Format : AAC
Format/Info : Advanced Audio Codec
Format profile : LC
Codec ID : mp4a-40-2
Duration : 1h 41mn
Source duration : 1h 41mn
Bit rate mode : Variable
Bit rate : 158 Kbps
Maximum bit rate : 231 Kbps
Channel(s) : 2 channels
Channel positions : Front: L R
Sampling rate : 48.0 KHz
Frame rate : 46.875 fps (1024 SPF)
Compression mode : Lossy
Stream size : 115 MiB (2%)
Source stream size : 115 MiB (2%)
Title : English Stereo
Language : English
Default : No
Alternate group : 1
Encoded date : UTC 2018-02-01 08:56:18
Tagged date : UTC 2018-02-01 08:56:36

Audio #3
ID : 4
Format : AC-3
Format/Info : Audio Coding 3
Codec ID : ac-3
Duration : 1h 41mn
Bit rate mode : Constant
Bit rate : 448 Kbps
Channel(s) : 6 channels
Channel positions : Front: L C R, Side: L R, LFE
Sampling rate : 48.0 KHz
Frame rate : 31.250 fps (1536 SPF)
Bit depth : 16 bits
Compression mode : Lossy
Stream size : 325 MiB (6%)
Title : Russian DD 5.1
Language : Russian
Service kind : Complete Main
Default : Inherited From: 2
Alternate group : 1
Encoded date : UTC 2018-02-01 08:56:18
Tagged date : UTC 2018-02-01 08:56:30
Fallback To : 2
Subtitles : 6,7

Audio #4
ID : 5
Format : AC-3
Format/Info : Audio Coding 3
Codec ID : ac-3
Duration : 1h 41mn
Bit rate mode : Constant
Bit rate : 640 Kbps
Channel(s) : 6 channels
Channel positions : Front: L C R, Side: L R, LFE
Sampling rate : 48.0 KHz
Frame rate : 31.250 fps (1536 SPF)
Bit depth : 16 bits
Compression mode : Lossy
Stream size : 464 MiB (8%)
Title : English DD 5.1
Language : English
Service kind : Complete Main
Default : No
Alternate group : 1
Encoded date : UTC 2018-02-01 08:56:18
Tagged date : UTC 2018-02-01 08:56:30

Text #1
ID : 6
Format : Timed Text
Muxing mode : sbtl
Codec ID : tx3g
Duration : 1h 41mn
Bit rate mode : Variable
Bit rate : 1 bps
Stream size : 919 Bytes (0%)
Title : Russian forced
Language : Russian
Default : Yes
Forced : Yes
Alternate group : 2
Encoded date : UTC 2018-02-01 08:56:18
Tagged date : UTC 2018-02-01 08:56:18
Subtitles For : 2,4
Full Alternative : 7

Text #2
ID : 7
Format : Timed Text
Muxing mode : sbtl
Codec ID : tx3g
Duration : 1h 41mn
Bit rate mode : Variable
Bit rate : 139 bps
Stream size : 103 KiB (0%)
Title : Russian full
Language : Russian
Default : No
Forced : No
Alternate group : 2
Encoded date : UTC 2018-02-01 08:56:18
Tagged date : UTC 2018-02-01 08:56:18
Subtitles For : 2,4
Forced Alternative : 6

Text #3
ID : 8
Format : Timed Text
Muxing mode : sbtl
Codec ID : tx3g
Duration : 1h 41mn
Bit rate mode : Variable
Bit rate : 92 bps
Stream size : 68.3 KiB (0%)
Title : English full
Language : English
Default : No
Forced : No
Alternate group : 2
Encoded date : UTC 2018-02-01 08:56:18
Tagged date : UTC 2018-02-01 08:56:18

Menu #1
00:00:00.000 : Chapter 1
00:11:44.746 : Chapter 2
00:23:32.453 : Chapter 3
00:31:09.785 : Chapter 4
00:40:53.368 : Chapter 5
00:53:48.392 : Chapter 6
01:03:05.532 : Chapter 7
01:16:07.688 : Chapter 8
01:25:13.609 : Chapter 9
01:32:10.900 : Chapter 10

Menu #2
ID : 9
Codec ID : text
Duration : 1h 41mn
Language : English
Encoded date : UTC 2018-02-01 08:56:36
Tagged date : UTC 2018-02-01 08:56:36
Menu For : 1
00:00:00.000 : Chapter 1
00:11:44.746 : Chapter 2
00:23:32.453 : Chapter 3
00:31:09.785 : Chapter 4
00:40:53.368 : Chapter 5
00:53:48.392 : Chapter 6
01:03:05.532 : Chapter 7
01:16:07.688 : Chapter 8
01:25:13.609 : Chapter 9
01:32:10.900 : Chapter 10
Bit rate mode : VBR
x264 [info]: frame I:1206 Avg QP:15.53 size:213837
x264 [info]: frame P:41242 Avg QP:18.92 size: 66557
x264 [info]: frame B:103485 Avg QP:19.24 size: 18773
x264 [info]: consecutive B-frames: 5.9% 4.4% 22.6% 23.5% 16.4% 20.5% 3.5% 1.7% 1.2% 0.2% 0.1% 0.0% 0.0% 0.0% 0.0% 0.0% 0.0%
x264 [info]: mb I I16..4: 20.3% 58.2% 21.5%
x264 [info]: mb P I16..4: 4.2% 17.3% 2.2% P16..4: 42.5% 17.7% 10.6% 0.3% 0.1% skip: 5.1%
x264 [info]: mb B I16..4: 0.6% 1.5% 0.2% B16..8: 37.7% 8.2% 1.7% direct: 6.7% skip:43.4% L0:43.3% L1:45.0% BI:11.7%
x264 [info]: 8x8 transform intra:70.3% inter:59.2%
x264 [info]: direct mvs spatial:97.6% temporal:2.4%
x264 [info]: coded y,uvDC,uvAC intra: 88.1% 84.7% 64.0% inter: 24.7% 25.7% 11.3%
x264 [info]: i16 v,h,dc,p: 10% 13% 35% 43%
x264 [info]: i8 v,h,dc,ddl,ddr,vr,hd,vl,hu: 12% 13% 10% 8% 11% 11% 12% 11% 12%
x264 [info]: i4 v,h,dc,ddl,ddr,vr,hd,vl,hu: 11% 12% 7% 9% 13% 13% 13% 10% 12%
x264 [info]: i8c dc,h,v,p: 41% 26% 19% 14%
x264 [info]: Weighted P-Frames: Y:2.4% UV:1.8%
x264 [info]: ref P L0: 57.4% 11.6% 21.9% 8.3% 0.8% 0.0%
x264 [info]: ref B L0: 84.1% 13.0% 2.9%
x264 [info]: ref B L1: 95.5% 4.5%
x264 [info]: kb/s:6500.27

Apple TV, iPad, iPhone, iPod Touch.
Windows VLC media player

 ·  , , FAQ-
:  [ 01--2018 12:42 ]

  

.torrent

.torrent 56 KB


: 5.61 GB
(hash) : 409b3a388bcf690e7c010ded8912a6ede5b6c31a
··
...

[ATV3] The LEGO Ninjago Movie . !

!