Paul Sherman | Hailey Clearwater | Feuer und Blut Fire and Blood

Скачать через торрент [iPad] Новогодний переполох бесплатно русская версия torrent активатор

Статистика раздачи
Размер:  1.31 GB   |    Зарегистрирован:  4 месяца 21 день   |    .torrent скачан:  29 раз   |   
Раздают:  1  
   
загрузка...
 
Автор Сообщение

Galfimbul

avatar Galfimbul


Новогодний переполох
«Битва за наследство началась»

5.400 / 10 / 10
Год выпуска: 2017
Страна: Россия
Жанр: Комедия, семейный
Продолжительность: 01:20:25

Перевод: (Не требуется)
Оригинальная аудиодорожка: Есть
Cубтитры: Нет
Режиссёр: Кирилл Папакуль
Сценарий: Саид Давдиев, Евгений Шелякин, Андрей Галанов
Продюсер: Бинке Анисимов, Ибрагим Магомедов, Владимир Маслов
Оператор: Андрей Дебабов, Вячеслав Быстрицкий
Композитор: Михаил Морсков, Артем Федотов
Художник: Ираида Шульц, Марианна Артемьева
В ролях: Владимир Меньшов, Константин Крюков, Анастасия Макеева, Ян Цапник, Инга Оболдина, Иван Пышненко, Екатерина Гордиенко, Карина Сардарова, Эрик Тевосов, Мария Вэй

Сборы в России: $959 446

Премьера (РФ): 14 декабря 2017, «Централ Партнершип»

Описание: Наверняка вы давно не играли в снежки… А в крокодила? Как ни странно, но именно этим вынуждены заниматься обитатели усадьбы Морозовых, потому что на кону отцовское наследство. И в этой нешуточной борьбе в ход идут любые средства. А средний сын Дима, неисправимый авантюрист, даже умудрился привезти с собой фиктивную семью. Только вот глава семейства, своенравный отставной генерал Георгий Иванович Морозов, даже не подозревает, что далеко не любовь к семейным традициям привела в дом всех членов семьи.Качество исходника: WEB-DL 1080p (BlueBird)
Качество: WEB-DLRip
Тип: SD (576p)
Контейнер: M4V
Видео: H.264, 1024x432, 2.40:1, 2 200 Kbps, 23.976 fps

Аудио: Русский/Оригинальная дорожка, AAC / 2.0 / 128 Kbps / 48.0 KHz
Sort Name: Новогодний переполох
XID: Apple:vendor_id:2017-1044422
contentID: 1329990645
Copyright: © 2017 Централ Партнершип Сейлз Хаус
Screenwriters: Саид Давдиев, Евгений Шелякин, Андрей Галанов
Producers: Бинке Анисимов, Ибрагим Магомедов, Владимир Маслов
Director: Кирилл Папакуль
Cast: Владимир Меньшов, Константин Крюков, Анастасия Макеева, Ян Цапник, Инга Оболдина, Иван Пышненко, Екатерина Гордиенко, Карина Сардарова, Эрик Тевосов, Мария Вэй
Studio: RSS Production
Rating: 134
Long Description: Наверняка вы давно не играли в снежки... А в крокодила? Как ни странно, но именно этим вынуждены заниматься обитатели усадьбы Морозовых, потому что на кону отцовское наследство. И в этой нешуточной борьбе в ход идут любые средства. А средний сын Дима, неисправимый авантюрист, даже умудрился привезти с собой фиктивную семью. Только вот глава семейства, своенравный отставной генерал Георгий Иванович Морозов, даже не подозревает, что далеко не любовь к семейным традициям привела в дом всех членов семьи.
Description: Наверняка вы давно не играли в снежки... А в крокодила? Как ни странно, но именно этим вынуждены заниматься обитатели усадьбы Морозовых, потому что на кону отцовское наследство...
Release Date: 2017-12-14T08:00:00Z
Genre: Comedy
Artist: Кирилл Папакуль
Name: Новогодний переполох
General
Complete name : /Users/imac/HandBrake/Novogodniy.perepolokh.(SD).(pk).m4v
Format : MPEG-4
Codec ID : M4V
File size : 1.31 GiB
Duration : 1h 20mn
Overall bit rate mode : Variable
Overall bit rate : 2 335 Kbps
Movie name : Новогодний переполох
Performer : Кирилл Папакуль
Director : Кирилл Папакуль
Actor : Владимир Меньшов / Константин Крюков / Анастасия Макеева / Ян Цапник / Инга Оболдина / Иван Пышненко / Екатерина Гордиенко / Карина Сардарова / Эрик Тевосов / Мария Вэй
Screenplay by : Саид Давдиев / Евгений Шелякин / Андрей Галанов
Producer : Бинке Анисимов / Ибрагим Магомедов / Владимир Маслов
Production studio : RSS Production
Genre : Comedy
ContentType : Short Film
Description : Наверняка вы давно не играли в снежки... А в крокодила? Как ни странно, но именно этим вынуждены заниматься обитатели усадьбы Морозовых, потому что на кону отцовское наследство...
Recorded date : UTC 2017-12-14 08:00:00
Encoded date : UTC 2018-01-31 22:50:20
Tagged date : UTC 2018-01-31 22:50:55
Copyright : © 2017 Централ Партнершип Сейлз Хаус
Cover : Yes
Rating : None
Title/Sort : Новогодний переполох
LongDescription : Наверняка вы давно не играли в снежки... А в крокодила? Как ни странно, но именно этим вынуждены заниматься обитатели усадьбы Морозовых, потому что на кону отцовское наследство. И в этой нешуточной борьбе в ход идут любые средства. А средний сын Дима, неисправимый авантюрист, даже умудрился привезти с собой фиктивную семью. Только вот глава семейства, своенравный отставной генерал Георгий Иванович Морозов, даже не подозревает, что далеко не любовь к семейным традициям привела в дом всех членов семьи.
AppleStoreCatalogID : 1329990645
Vendor : Apple:vendor_id:2017-1044422
ContentRating : ru-movie|12+|200|

Video #1
ID : 1
Format : AVC
Format/Info : Advanced Video Codec
Format profile : [email protected]
Format settings, CABAC : Yes
Format settings, ReFrames : 9 frames
Codec ID : avc1
Codec ID/Info : Advanced Video Coding
Duration : 1h 20mn
Source duration : 1h 20mn
Bit rate : 2 200 Kbps
Width : 1 024 pixels
Height : 432 pixels
Display aspect ratio : 2.40:1
Frame rate mode : Variable
Frame rate : 23.976 fps
Minimum frame rate : 23.974 fps
Maximum frame rate : 23.981 fps
Color space : YUV
Chroma subsampling : 4:2:0
Bit depth : 8 bits
Scan type : Progressive
Bits/(Pixel*Frame) : 0.207
Stream size : 1.24 GiB (94%)
Source stream size : 1.24 GiB (94%)
Title : Main Program
Writing library : x264 core 148 r2708 86b7198
Encoding settings : cabac=1 / ref=9 / deblock=1:0:0 / analyse=0x3:0x113 / me=umh / subme=9 / psy=1 / psy_rd=1.00:0.00 / mixed_ref=1 / me_range=32 / chroma_me=1 / trellis=1 / 8x8dct=1 / cqm=0 / deadzone=21,11 / fast_pskip=1 / chroma_qp_offset=-2 / threads=13 / lookahead_threads=1 / sliced_threads=0 / nr=0 / decimate=1 / interlaced=0 / bluray_compat=0 / constrained_intra=0 / bframes=6 / b_pyramid=2 / b_adapt=2 / b_bias=0 / direct=1 / weightb=1 / open_gop=0 / weightp=2 / keyint=240 / keyint_min=24 / scenecut=40 / intra_refresh=0 / rc_lookahead=40 / rc=2pass / mbtree=1 / bitrate=2200 / ratetol=1.0 / qcomp=0.60 / qpmin=0 / qpmax=69 / qpstep=4 / cplxblur=20.0 / qblur=0.5 / ip_ratio=1.40 / aq=1:1.00
Language : Russian
Encoded date : UTC 2018-01-31 22:50:20
Tagged date : UTC 2018-01-31 22:50:23
Color range : Limited
Color primaries : BT.709
Transfer characteristics : BT.709
Matrix coefficients : BT.709

Video #2
ID : 4
Format : JPEG
Codec ID : jpeg
Duration : 1h 20mn
Bit rate mode : Variable
Bit rate : 1 142 bps
Width : 640 pixels
Height : 270 pixels
Display aspect ratio : 2.40:1
Frame rate mode : Variable
Frame rate : 0.003 fps
Minimum frame rate : 0.002 fps
Maximum frame rate : 0.004 fps
Color space : YUV
Chroma subsampling : 4:2:0
Bit depth : 8 bits
Compression mode : Lossy
Bits/(Pixel*Frame) : 2.203
Stream size : 651 KiB (0%)
Title : Chapter Images
Language : Russian
Encoded date : UTC 2018-01-31 22:50:27
Tagged date : UTC 2018-01-31 22:50:28

Audio
ID : 2
Format : AAC
Format/Info : Advanced Audio Codec
Format profile : LC
Codec ID : 40
Duration : 1h 20mn
Source duration : 1h 20mn
Bit rate mode : Variable
Bit rate : 127 Kbps
Maximum bit rate : 187 Kbps
Channel(s) : 2 channels
Channel positions : Front: L R
Sampling rate : 48.0 KHz
Compression mode : Lossy
Stream size : 73.0 MiB (5%)
Source stream size : 73.0 MiB (5%)
Title : Russian Stereo
Language : Russian
Encoded date : UTC 2018-01-31 22:50:20
Tagged date : UTC 2018-01-31 22:50:25

Menu #1
00:00:00.000 : 1
00:05:42.080 : 2
00:11:40.680 : 3
00:17:10.040 : 4
00:21:38.200 : 5
00:28:00.840 : 6
00:33:17.920 : 7
00:40:20.120 : 8
00:46:01.000 : 9
00:51:28.280 : 10
00:58:32.320 : 11
01:02:57.320 : 12
01:08:19.240 : 13
01:12:59.200 : 14

Menu #2
ID : 3
Codec ID : text
Duration : 1h 20mn
Language : Russian
Encoded date : UTC 2018-01-31 22:50:25
Tagged date : UTC 2018-01-31 22:50:25
00:00:00.000 : 1
00:05:42.080 : 2
00:11:40.680 : 3
00:17:10.040 : 4
00:21:38.200 : 5
00:28:00.840 : 6
00:33:17.920 : 7
00:40:20.120 : 8
00:46:01.000 : 9
00:51:28.280 : 10
00:58:32.320 : 11
01:02:57.320 : 12
01:08:19.240 : 13
01:12:59.200 : 14
Bit rate mode : VBR
x264 [info]: frame I:1567  Avg QP:14.31  size: 71286
x264 [info]: frame P:32714 Avg QP:17.73  size: 22663
x264 [info]: frame B:81416 Avg QP:20.88  size:  5816
x264 [info]: consecutive B-frames:  4.1%  7.4% 12.3% 55.7% 12.8%  6.3%  1.4%
x264 [info]: mb I  I16..4:  7.6% 59.1% 33.2%
x264 [info]: mb P  I16..4:  1.4%  7.9%  3.0%  P16..4: 34.6% 26.7% 16.2%  0.0%  0.0%    skip:10.1%
x264 [info]: mb B  I16..4:  0.1%  0.8%  0.4%  B16..8: 36.2% 10.2%  3.4%  direct: 4.6%  skip:44.2%  L0:37.6% L1:44.5% BI:17.9%
x264 [info]: 8x8 transform intra:62.2% inter:64.9%
x264 [info]: coded y,uvDC,uvAC intra: 84.6% 87.2% 64.2% inter: 25.3% 21.6% 3.7%
x264 [info]: i16 v,h,dc,p: 25% 21%  5% 50%
x264 [info]: i8 v,h,dc,ddl,ddr,vr,hd,vl,hu: 14% 10%  5%  8% 12% 13% 12% 12% 13%
x264 [info]: i4 v,h,dc,ddl,ddr,vr,hd,vl,hu: 13% 11%  3%  9% 14% 14% 13% 11% 13%
x264 [info]: i8c dc,h,v,p: 36% 24% 22% 18%
x264 [info]: Weighted P-Frames: Y:2.5% UV:1.2%
x264 [info]: ref P L0: 59.1% 14.1% 12.5%  4.5%  3.2%  2.3%  1.9%  1.2%  1.2%  0.1%  0.0%
x264 [info]: ref B L0: 85.6%  7.5%  3.2%  1.3%  1.0%  0.8%  0.5%  0.2%
x264 [info]: ref B L1: 97.0%  3.0%
x264 [info]: kb/s:2199.41
Релиз подготовлен для просмотра на Apple TV, iPad, iPhone, iPod Touch.
Для просмотра данного релиза на компьютере с ОС Windows рекомендуется использовать VLC media player

Трекер:  [ 01-Фев-2018 02:12 ]

  

Скачать .torrent

Размер .torrent файла 26 KB


Размер: 1.31 GB
Хэш (hash) релиза: 90c88700688b4ba1ab40058f001be536bdf63a6d

Еще никто не оставлял запись к записи скачать торрент [iPad] Новогодний переполох . Будь первым!

!Обратная связь