I am Just Junco #4 - Range | Allistair McNab | Revenge Of The Green Dragons

Скачать через торрент [ATV3] Новогодний переполох бесплатно русская версия torrent активатор

Статистика раздачи
Размер:  2.95 GB   |    Зарегистрирован:  4 месяца 21 день   |    .torrent скачан:  30 раз   |   
Раздают:  1  
   
загрузка...
 
Автор Сообщение

Galfimbul

avatar Galfimbul


Новогодний переполох
«Битва за наследство началась»

5.400 / 10 / 10
Год выпуска: 2017
Страна: Россия
Жанр: Комедия, семейный
Продолжительность: 01:20:25

Перевод: (Не требуется)
Оригинальная аудиодорожка: Есть
Cубтитры: Нет
Режиссёр: Кирилл Папакуль
Сценарий: Саид Давдиев, Евгений Шелякин, Андрей Галанов
Продюсер: Бинке Анисимов, Ибрагим Магомедов, Владимир Маслов
Оператор: Андрей Дебабов, Вячеслав Быстрицкий
Композитор: Михаил Морсков, Артем Федотов
Художник: Ираида Шульц, Марианна Артемьева
В ролях: Владимир Меньшов, Константин Крюков, Анастасия Макеева, Ян Цапник, Инга Оболдина, Иван Пышненко, Екатерина Гордиенко, Карина Сардарова, Эрик Тевосов, Мария Вэй

Сборы в России: $959 446

Премьера (РФ): 14 декабря 2017, «Централ Партнершип»

Описание: Наверняка вы давно не играли в снежки… А в крокодила? Как ни странно, но именно этим вынуждены заниматься обитатели усадьбы Морозовых, потому что на кону отцовское наследство. И в этой нешуточной борьбе в ход идут любые средства. А средний сын Дима, неисправимый авантюрист, даже умудрился привезти с собой фиктивную семью. Только вот глава семейства, своенравный отставной генерал Георгий Иванович Морозов, даже не подозревает, что далеко не любовь к семейным традициям привела в дом всех членов семьи.Качество исходника: WEB-DL 1080p (BlueBird)
Качество: WEB-DL
Тип: HD (1080p)
Контейнер: M4V
Видео: H.264, 1920x804, 2.40:1, 4 696 Kbps, 25.000 fps

Аудио 1: Русский/Оригинальная дорожка , AAC / 2.0 / 160 Kbps / 48.0 KHz
Аудио 2: Русский/Оригинальная дорожка , AC-3 / 5.1 / 384 Kbps / 48.0 KHz
Sort Name: Новогодний переполох
XID: Apple:vendor_id:2017-1044422
contentID: 1329990645
Copyright: © 2017 Централ Партнершип Сейлз Хаус
Screenwriters: Саид Давдиев, Евгений Шелякин, Андрей Галанов
Producers: Бинке Анисимов, Ибрагим Магомедов, Владимир Маслов
Director: Кирилл Папакуль
Cast: Владимир Меньшов, Константин Крюков, Анастасия Макеева, Ян Цапник, Инга Оболдина, Иван Пышненко, Екатерина Гордиенко, Карина Сардарова, Эрик Тевосов, Мария Вэй
Studio: RSS Production
Rating: 134
Long Description: Наверняка вы давно не играли в снежки... А в крокодила? Как ни странно, но именно этим вынуждены заниматься обитатели усадьбы Морозовых, потому что на кону отцовское наследство. И в этой нешуточной борьбе в ход идут любые средства. А средний сын Дима, неисправимый авантюрист, даже умудрился привезти с собой фиктивную семью. Только вот глава семейства, своенравный отставной генерал Георгий Иванович Морозов, даже не подозревает, что далеко не любовь к семейным традициям привела в дом всех членов семьи.
Description: Наверняка вы давно не играли в снежки... А в крокодила? Как ни странно, но именно этим вынуждены заниматься обитатели усадьбы Морозовых, потому что на кону отцовское наследство...
Release Date: 2017-12-14T08:00:00Z
Genre: Comedy
Artist: Кирилл Папакуль
Name: Новогодний переполох
General
Complete name : /Users/imac/HandBrake/Novogodniy.perepolokh.WEB-DL.1080p.m4v
Format : MPEG-4
Codec ID : M4V
File size : 2.95 GiB
Duration : 1h 20mn
Overall bit rate mode : Variable
Overall bit rate : 5 248 Kbps
Movie name : Новогодний переполох
Performer : Кирилл Папакуль
Director : Кирилл Папакуль
Actor : Владимир Меньшов / Константин Крюков / Анастасия Макеева / Ян Цапник / Инга Оболдина / Иван Пышненко / Екатерина Гордиенко / Карина Сардарова / Эрик Тевосов / Мария Вэй
Screenplay by : Саид Давдиев / Евгений Шелякин / Андрей Галанов
Producer : Бинке Анисимов / Ибрагим Магомедов / Владимир Маслов
Production studio : RSS Production
Genre : Comedy
ContentType : Short Film
Description : Наверняка вы давно не играли в снежки... А в крокодила? Как ни странно, но именно этим вынуждены заниматься обитатели усадьбы Морозовых, потому что на кону отцовское наследство...
Recorded date : UTC 2017-12-14 08:00:00
Encoded date : UTC 2018-01-31 10:54:17
Tagged date : UTC 2018-01-31 10:56:43
Copyright : © 2017 Централ Партнершип Сейлз Хаус
Cover : Yes
Rating : None
Title/Sort : Новогодний переполох
LongDescription : Наверняка вы давно не играли в снежки... А в крокодила? Как ни странно, но именно этим вынуждены заниматься обитатели усадьбы Морозовых, потому что на кону отцовское наследство. И в этой нешуточной борьбе в ход идут любые средства. А средний сын Дима, неисправимый авантюрист, даже умудрился привезти с собой фиктивную семью. Только вот глава семейства, своенравный отставной генерал Георгий Иванович Морозов, даже не подозревает, что далеко не любовь к семейным традициям привела в дом всех членов семьи.
AppleStoreCatalogID : 1329990645
Vendor : Apple:vendor_id:2017-1044422
ContentRating : ru-movie|12+|200|

Video #1
ID : 1
Format : AVC
Format/Info : Advanced Video Codec
Format profile : [email protected]
Format settings, CABAC : Yes
Format settings, ReFrames : 5 frames
Codec ID : avc1
Codec ID/Info : Advanced Video Coding
Duration : 1h 20mn
Bit rate : 4 696 Kbps
Width : 1 920 pixels
Height : 804 pixels
Display aspect ratio : 2.40:1
Frame rate mode : Constant
Frame rate : 25.000 fps
Color space : YUV
Chroma subsampling : 4:2:0
Bit depth : 8 bits
Scan type : Progressive
Bits/(Pixel*Frame) : 0.122
Stream size : 2.64 GiB (89%)
Title : Main Program
Language : Russian
Encoded date : UTC 2018-01-31 10:54:17
Tagged date : UTC 2018-01-31 10:54:22
Color range : Limited
Color primaries : BT.709
Transfer characteristics : BT.709
Matrix coefficients : BT.709

Video #2
ID : 7
Format : JPEG
Codec ID : jpeg
Duration : 1h 20mn
Bit rate mode : Variable
Bit rate : 1 157 bps
Width : 640 pixels
Height : 268 pixels
Display aspect ratio : 2.40:1
Frame rate mode : Variable
Frame rate : 0.003 fps
Minimum frame rate : 0.002 fps
Maximum frame rate : 0.004 fps
Color space : YUV
Chroma subsampling : 4:2:0
Bit depth : 8 bits
Compression mode : Lossy
Bits/(Pixel*Frame) : 2.249
Stream size : 659 KiB (0%)
Title : Chapter Images
Language : Russian
Encoded date : UTC 2018-01-31 10:56:11
Tagged date : UTC 2018-01-31 10:56:11

Audio #1
ID : 2
Format : AAC
Format/Info : Advanced Audio Codec
Format profile : LC
Codec ID : 40
Duration : 1h 20mn
Source duration : 1h 20mn
Bit rate mode : Variable
Bit rate : 159 Kbps
Maximum bit rate : 235 Kbps
Channel(s) : 2 channels
Channel positions : Front: L R
Sampling rate : 48.0 KHz
Compression mode : Lossy
Stream size : 91.5 MiB (3%)
Source stream size : 91.5 MiB (3%)
Title : Russian Stereo
Language : Russian
Encoded date : UTC 2018-01-31 10:54:17
Tagged date : UTC 2018-01-31 10:54:23

Audio #2
ID : 3
Format : AC-3
Format/Info : Audio Coding 3
Mode extension : CM (complete main)
Format settings, Endianness : Big
Codec ID : ac-3
Duration : 1h 20mn
Bit rate mode : Constant
Bit rate : 384 Kbps
Channel(s) : 6 channels
Channel positions : Front: L C R, Side: L R, LFE
Sampling rate : 48.0 KHz
Bit depth : 16 bits
Compression mode : Lossy
Stream size : 221 MiB (7%)
Title : Russian DD 5.1
Language : Russian
Encoded date : UTC 2018-01-31 10:54:17
Tagged date : UTC 2018-01-31 10:54:22

Menu #1
00:00:00.000 : 1
00:05:42.080 : 2
00:11:40.680 : 3
00:17:10.040 : 4
00:21:38.200 : 5
00:28:00.840 : 6
00:33:17.920 : 7
00:40:20.120 : 8
00:46:01.000 : 9
00:51:28.280 : 10
00:58:32.320 : 11
01:02:57.320 : 12
01:08:19.240 : 13
01:12:59.200 : 14

Menu #2
ID : 6
Codec ID : text
Duration : 1h 20mn
Language : Russian
Encoded date : UTC 2018-01-31 10:55:32
Tagged date : UTC 2018-01-31 10:55:32
00:00:00.000 : 1
00:05:42.080 : 2
00:11:40.680 : 3
00:17:10.040 : 4
00:21:38.200 : 5
00:28:00.840 : 6
00:33:17.920 : 7
00:40:20.120 : 8
00:46:01.000 : 9
00:51:28.280 : 10
00:58:32.320 : 11
01:02:57.320 : 12
01:08:19.240 : 13
01:12:59.200 : 14
Bit rate mode : VBR
Релиз подготовлен для просмотра на Apple TV, iPad, iPhone, iPod Touch.
Для просмотра данного релиза на компьютере с ОС Windows рекомендуется использовать VLC media player

Трекер:  [ 31-Янв-2018 14:42 ]

  

Скачать .torrent

Размер .torrent файла 30 KB


Размер: 2.95 GB
Хэш (hash) релиза: 17e64a96c6ab6ac20f8cef2b31e8abeb2f48feac

Еще никто не оставлял запись к записи скачать торрент [ATV3] Новогодний переполох . Будь первым!

!Обратная связь