Angourie Rice | Justice Smith | Owen Teague

Скачать через торрент Повелитель Gekijouban Soushuuhen Overlord бесплатно Аниме Все серии на русском torrent

Статистика раздачи
Размер:  558 MB   |    Зарегистрирован:  4 месяца 22 дня   |    .torrent скачан:  31 раз   |   
Раздают:  1  
   
загрузка...
 
Автор Сообщение

Galfimbul

avatar Galfimbul


Страна: Япония
Год выпуска: 2017
Жанр: приключения, фэнтези
Тип: Special
Продолжительность: 2 эпизода по 13 мин.Режиссер: Ито Наоюки
Студия: Перевод:

русские субтитры от Night | .ass, внешние

Описание: Бежать из тягостной повседневности, покорить дивный новый мир, стать неуязвимым и бессмертным суперменом – такова мечта пресловутого «офисного планктона». Типичный его представитель, сражавшийся в недалеком будущем в виртуальную РПГ «Иггдрасиль» под ником Момонга, не захотел покидать закрывающуюся игру. Зачем же уходить из обжитой иллюзии, если можно даром получить целый мир для себя, любимого?!

И вот она у твоих ног – иная реальность, что рождается в мировом ничто, а неигровые персонажи, бездушные программы на глазах обретают сюжетную плоть и кровь. Кого волнует, что приходится странствовать в образе костлявого лича? Ведь ты всемогущ, прикажи – и красотка Альбедо воспылает страстью, а вампирша Шальтир будет ее отчаянно ревновать. Не стоит размышлять, Будда ты или бабочка на цветке лотоса: бей, руби, люби – в сказке можно все!© Hollow, World ArtИнформационные ссылки: AniDB || World Art || MALКачество: BDRip
Автор рипа: Urotsuki [Beatrice-Raws]
Тип видео: без хардсаба, без линковки
Формат видео: MKV
Видео: HEVC, 10 бит, 1920x1080, 23.976 кадра/сек, 2361 Кбит/сек
Аудио JAP: FLAC, 48,0 КГц, 2 канала, 609 Кбит/сек
ОбщееУникальный идентификатор : 328950337300724239459375142513173460376 (0xF77987CDB162250621F0425E3985F598)Полное имя : ..\[Beatrice-Raws] Gekijouban Soushuuhen Overlord (Specials) [BDRip 1920x1080 HEVC FLAC]\[Beatrice-Raws] Gekijouban Soushuuhen Overlord SP1 [BDRip 1920x1080 HEVC FLAC].mkvФормат : MatroskaВерсия формата : Version 4 / Version 2Размер файла : 277 МбайтПродолжительность : 13 м. 1 с.Режим общего битрейта : ПеременныйОбщий поток : 2971 Кбит/секДата кодирования : UTC 2018-01-29 13:12:08Программа кодирования : mkvmerge v19.0.0 ('Brave Captain') 64-bitБиблиотека кодирования : libebml v1.3.5 + libmatroska v1.4.8

ВидеоИдентификатор : 1Формат : HEVCФормат/Информация : High Efficiency Video CodingПрофиль формата : Main [email protected]@MainИдентификатор кодека : V_MPEGH/ISO/HEVCПродолжительность : 13 м. 1 с.Битрейт : 2361 Кбит/секШирина : 1920 пикселейВысота : 1080 пикселейСоотношение сторон : 16:9Режим частоты кадров : ПостоянныйЧастота кадров : 23,976 (24000/1001) кадра/секЦветовое пространство : YUVСубдискретизация насыщенности : 4:2:0Битовая глубина : 10 битБит/(Пиксели*Кадры) : 0.047Размер потока : 220 Мбайт (79%)Заголовок : BDRip by UrotsukiБиблиотека кодирования : x265 2.6+32-b763c22920f6:[Windows][MSVC 1912][64 bit] 10bitНастройки программы : cpuid=1173503 / frame-threads=2 / numa-pools=4 / wpp / no-pmode / no-pme / no-psnr / no-ssim / log-level=2 / csv / csv-log-level=2 / input-csp=1 / input-res=1920x1080 / interlace=0 / total-frames=0 / level-idc=0 / high-tier=1 / uhd-bd=0 / ref=4 / no-allow-non-conformance / no-repeat-headers / annexb / no-aud / no-hrd / info / hash=0 / no-temporal-layers / no-open-gop / min-keyint=23 / keyint=240 / gop-lookahead=0 / bframes=9 / b-adapt=2 / b-pyramid / bframe-bias=0 / rc-lookahead=20 / lookahead-slices=6 / scenecut=40 / radl=0 / no-intra-refresh / ctu=32 / min-cu-size=8 / no-rect / no-amp / max-tu-size=32 / tu-inter-depth=2 / tu-intra-depth=2 / limit-tu=0 / rdoq-level=2 / dynamic-rd=0.00 / no-ssim-rd / signhide / no-tskip / nr-intra=0 / nr-inter=0 / no-constrained-intra / no-strong-intra-smoothing / max-merge=3 / limit-refs=2 / limit-modes / me=2 / subme=5 / merange=48 / temporal-mvp / weightp / weightb / no-analyze-src-pics / deblock=1:-1 / no-sao / no-sao-non-deblock / rd=4 / no-early-skip / no-rskip / no-fast-intra / no-tskip-fast / no-cu-lossless / no-b-intra / no-splitrd-skip / rdpenalty=0 / psy-rd=2.00 / psy-rdoq=4.00 / no-rd-refine / no-lossless / cbqpoffs=0 / crqpoffs=0 / rc=crf / crf=16.7 / qcomp=0.72 / qpstep=4 / stats-write=0 / stats-read=0 / ipratio=1.40 / pbratio=1.30 / aq-mode=3 / aq-strength=0.85 / no-cutree / zone-count=0 / no-strict-cbr / qg-size=16 / no-rc-grain / qpmax=69 / qpmin=0 / no-const-vbv / sar=1 / overscan=0 / videoformat=5 / range=0 / colorprim=1 / transfer=1 / colormatrix=1 / chromaloc=0 / display-window=0 / max-cll=0,0 / min-luma=0 / max-luma=1023 / log2-max-poc-lsb=8 / vui-timing-info / vui-hrd-info / slices=1 / no-opt-qp-pps / no-opt-ref-list-length-pps / no-multi-pass-opt-rps / scenecut-bias=0.05 / no-opt-cu-delta-qp / no-aq-motion / no-hdr / no-hdr-opt / no-dhdr10-opt / analysis-reuse-level=5 / scale-factor=0 / refine-intra=0 / refine-inter=0 / refine-mv=0 / no-limit-sao / ctu-info=0 / no-lowpass-dct / refine-mv-type=0 / copy-pic=1Язык : JapaneseDefault : ДаForced : НетЦветовой диапазон : LimitedОсновные цвета : BT.709Характеристики трансфера : BT.709Коэффициенты матрицы : BT.709

АудиоИдентификатор : 2Формат : FLACФормат/Информация : Free Lossless Audio CodecИдентификатор кодека : A_FLACПродолжительность : 13 м. 1 с.Вид битрейта : ПеременныйБитрейт : 609 Кбит/секКаналы : 2 каналаРасположение каналов : Front: L RЧастота : 48,0 КГцЧастота кадров : 11,719 кадров/сек (4096 SPF)Битовая глубина : 16 битРазмер потока : 56,7 Мбайт (20%)Заголовок : LPCM->FLACБиблиотека кодирования : libFLAC 1.3.2 (UTC 2017-01-01)Язык : JapaneseDefault : ДаForced : Нет
Ple Ple Pleiades 1
Ple Ple Pleiades 2
В: Чем смотреть?
О: Как смотреть 10-битное видео (10-bit)


Трекер:  [ 30-Янв-2018 20:01 ]

  

Скачать .torrent

Размер .torrent файла 12 KB


Размер: 558 MB
Хэш (hash) релиза: aedc1d68e332fa040c2886f22eb168802fb0b0b4
Подписка на обновления:

Еще никто не оставлял запись к записи скачать торрент Повелитель Gekijouban Soushuuhen Overlord . Будь первым!

!Обратная связь