Religion and Spirituality Across Cultures
The Breaks

Скачать через торрент По ту сторону Обратная сторона Фильм бесплатно в хорошем качестве torrent

Скачивайте на UnionPeer.org фильмы через торрент без регистрации. Новинки кино в хорошем качестве через торрент. На UnionPeer.org можно скачать через торрент фильмы 2014 и 2015 годов. Самые новые фильмы.

Скачать торрент По ту сторону Обратная сторона бесплатно через .torrent фильм мультфильм сериал

Статистика раздачи
Размер:  6.75 GB   |    Зарегистрирован:  18 дней   |    .torrent скачан:  363 раза   |   
Раздают:  1  
   
загрузка...
 
Автор Сообщение

Galfimbul

avatar Galfimbul


По ту сторону / Counterpart

1 сезон
Год выпуска: 2018
Страна: США
Жанр: фантастика, триллер, драма
Продолжительность: ~60 мин
Озвучание: профессиональное многоголосое закадровое (AlexFilm)

Режиссеры: Алик Сахаров, Мортен Тильдум

В ролях: Дж.К. Симмонс, Гарри Ллойд, Назанин Бониади, Оливия Уильямс, Сара Серайокко, Ульрих Томсен, Бернхард Форхер, Кеннет Чои и др.

Описание: Говард Силке, незначительный винтик в бюрократической системе, обнаруживает, что агентство, в котором он работает, на самом деле занимается охраной переходов в параллельное измерение.

Релиз:

Перевод: Мисс Джексон, Алиса Галланова
Монтаж и сведение звука: Михаил Шорыгин
Роли озвучивали:

Маргарита Корш
Екатерина Муравицкая
Кирилл Патрино
Константин Федосеев
Дмитрий Лунёв
Михаил Суслов

Сэмпл: http://sendfile.su/1395102



Качество: WEB-DLRip
Формат: AVI
Видео: 720x400 (16:9), 23,976 fps, XviD ~1400 kbps avg, 0.198 bit/pixel
Аудио Rus: 48 kHz, MPEG Layer 3, 2 ch, ~128.00 kbps avg
Аудио Eng: 48 kHz, MPEG Layer 3, 2 ch, ~128.00 kbps avg
Субтитры: нет
Реклама: аудио (два раза, в начале 10 и в конце 10 сек.)
Формат : AVI
Формат/Информация : Audio Video Interleave
Размер файла : 647 Мбайт
Продолжительность : 55 м. 21 с.
Общий поток : 1635 Кбит/сек
Название фильма : Counterpart 1x01 @ AlexFilm
Программа кодирования : VirtualDubMod 1.5.10.2 (build 2540/release)
Библиотека кодирования : VirtualDubMod build 2540/release

Видео
Идентификатор : 0
Формат : MPEG-4 Visual
Профиль формата : Advanced [email protected]
Параметр BVOP формата : Нет
Параметр QPel формата : Нет
Параметр GMC формата : Без точки перехода
Параметр матрицы формата : Default (MPEG)
Идентификатор кодека : XVID
Идентификатор кодека/Подсказка : XviD
Продолжительность : 55 м. 21 с.
Битрейт : 1365 Кбит/сек
Ширина : 720 пикселей
Высота : 400 пикселей
Соотношение сторон : 16:9
Частота кадров : 23,976 (23976/1000) кадра/сек
Цветовое пространство : YUV
Субдискретизация насыщенности : 4:2:0
Битовая глубина : 8 бит
Тип развёртки : Прогрессивная
Метод сжатия : С потерями
Бит/(Пиксели*Кадры) : 0.198
Размер потока : 540 Мбайт (83%)
Библиотека кодирования : XviD 73

Аудио #1
Идентификатор : 1
Формат : MPEG Audio
Версия формата : Version 1
Профиль формата : Layer 3
Режим : Joint stereo
Расширение режима : MS Stereo
Идентификатор кодека : 55
Идентификатор кодека/Подсказка : MP3
Продолжительность : 55 м. 21 с.
Вид битрейта : Постоянный
Битрейт : 128 Кбит/сек
Каналы : 2 канала
Частота : 48,0 КГц
Метод сжатия : С потерями
Размер потока : 50,7 Мбайт (8%)
Выравнивание : Соединение по промежуткам
Продолжительность промежутка : 42 мс. (1,00 видеокадр)
Время предзагрузки промежутка : 504 мс.
Заголовок : Russian (AlexFilm)

Аудио #2
Идентификатор : 2
Формат : MPEG Audio
Версия формата : Version 1
Профиль формата : Layer 3
Режим : Joint stereo
Расширение режима : MS Stereo
Идентификатор кодека : 55
Идентификатор кодека/Подсказка : MP3
Продолжительность : 55 м. 21 с.
Вид битрейта : Постоянный
Битрейт : 128 Кбит/сек
Каналы : 2 канала
Частота : 48,0 КГц
Метод сжатия : С потерями
Размер потока : 50,7 Мбайт (8%)
Выравнивание : Соединение по промежуткам
Продолжительность промежутка : 42 мс. (1,00 видеокадр)
Время предзагрузки промежутка : 504 мс.
Заголовок : English
Внимание! Раздача ведётся путём добавления новых серий; при каждом добавлении создаётся новый торрент. Чтобы начать докачку новой серии, пользователям необходимо сделать следующее:
(1) остановить скачивание,
(2) удалить старый торрент у себя из клиента (старые серии удалять не надо),
(3) скачать новый торрент и запустить его у себя в клиенте вместо старого, при этом указать клиенту путь в старую папку куда и должно происходить скачивание новых серий.
Ваш клиент при этом должен произвести хеширование (проверку) старой папки (если не производит сам - помогите ему сделать это), и будет докачивать только те серии которых у вас ещё нет. Старые серии при этом не удаляются, а продолжают раздаваться!
Eсли вы уже удалили старые серии, то предотвратить повторную закачку старых серий можно, отжав галочку в соответствующих местах при запуске нового торрента. По возможности, желательно не удалять старые серии как можно дольше чтобы релизёр не столько продолжал раздавать старые серии, а смог сконцентрироваться на новых.


Трекер:  [ 02-Апр-2018 14:15 ]

  

Скачать .torrent

Размер .torrent файла 18 KB


Размер: 6.75 GB
Хэш (hash) релиза: bdcf81e6904ad43fe9842c12133c27af52074701
Подписка на обновления:

bot

Раздача обновлена!
Перекачайте торрент-файл.

bot

Раздача обновлена!
Перекачайте торрент-файл.

bot

Раздача обновлена!
Перекачайте торрент-файл.

bot

Раздача обновлена!
Перекачайте торрент-файл.

bot

Раздача обновлена!
Перекачайте торрент-файл.

bot

Раздача обновлена!
Перекачайте торрент-файл.

bot

Раздача обновлена!
Перекачайте торрент-файл.

Хотите добавить комментарий к записи скачать торрент По ту сторону Обратная сторона

!Обратная связь