Plague Inc. Mod APK 1.10.2 [Unlocked/Unlimited DNA] - Android Game | Signal Strength APK v19.3.4 [Premium] - Androi | ES File Explorer File Manager APK v4.1.7.1.14

Скачать через торрент 9-1-1 9-1-1 Фильм бесплатно в хорошем качестве torrent

Скачивайте на UnionPeer.org фильмы через торрент без регистрации. Новинки кино в хорошем качестве через торрент. На UnionPeer.org можно скачать через торрент фильмы 2014 и 2015 годов. Самые новые фильмы.

Скачать торрент 9-1-1 9-1-1 бесплатно через .torrent фильм мультфильм сериал

Если у вас наблюдаются проблемы со скриншотами, переходом по ссылками, скачиванием торрентов - проблемы в блокировщике рекламы AdBlock. #хорошегоДня!


Статистика раздачи
Размер:  3.23 GB   |    Зарегистрирован:  6 дней   |    .torrent скачан:  67 раз   |   
Раздают:  2  
   
Загрузка...
 
Автор Сообщение

Galfimbul

avatar Galfimbul


9-1-1 | 9-1-1

Год выпуска: 2017
Страна: США
Жанр: Драма
Продолжительность: ~ 00:45:00
Перевод: Профессиональный (многоголосый закадровый) | Jaskier

Режиссёр: Брэдли Букер
В ролях: Анджела Бассетт, Конни Бриттон, Корина Мессиа, Бриэль Барбаска, Рэйчел Бритаг, Лондон Чешир, Адина ДеСоуза, Алекс Лойназ и другие.

Описание: Сериал расскажет о работе полицейских, «Скорой помощи» и пожарной службы. Все они выполняют свой долг, часто рискуя жизнью и попадая в самые пугающие и шокирующие ситуации. Смысл их ежедневной работы состоит в охране безопасности улиц и помощи всем, кто в ней нуждается. Полицейские, пожарные и парамедики работают бок о бок в жестких условиях большого города. Эти экстренные службы должны стараться балансировать, спасая тех, кто находится в наиболее уязвимом положении, и при этом решать проблемы в их собственной жизни.

|

Качество: WEB-DLRip
Формат: AVI
Видео: XviD, ~ 1400 kbps, 720x400 (16:9), 23.976 fps
Аудио 1: MP3, 48,0 КГц, 2 ch, 128 kbps - Rus
Аудио 2: MP3, 48,0 КГц, 2 ch, 128 kbps - Eng
Субтитры: отсутствуют

Реклама: Присутствует звуковая (два раза в начале и конце по 12 сек.)
Перевод и озвучивание Студия Jaskier
Общее
Полное имя                               : D:\Яскъер\9-1-1. Season 1 (WEB-DLRip l 400p l Jaskier)\9-1-1.S01E01.WEB-DLRip.Rus.Eng.Jaskier.avi
Формат                                   : AVI
Формат/Информация                        : Audio Video Interleave
Размер файла                             : 551 Мбайт
Продолжительность                        : 46 м. 22 с.
Общий поток                              : 1660 Кбит/сек
Программа кодирования                    : VirtualDubMod 1.5.10.3 | www.virtualdub-fr.org || (build 2550/release)
Библиотека кодирования                   : VirtualDubMod build 2550/release

Видео
Идентификатор                            : 0
Формат                                   : MPEG-4 Visual
Профиль формата                          : Advanced [email protected]
Настройки формата                        : BVOP1 / QPel
Параметр BVOP формата                    : 1
Параметр QPel формата                    : Да
Параметр GMC формата                     : Без точки перехода
Параметр матрицы формата                 : Default (MPEG)
Идентификатор кодека                     : XVID
Идентификатор кодека/Подсказка           : XviD
Продолжительность                        : 46 м. 22 с.
Битрейт                                  : 1390 Кбит/сек
Ширина                                   : 720 пикселей
Высота                                   : 400 пикселей
Соотношение сторон                       : 16:9
Частота кадров                           : 23,976 (24000/1001) кадра/сек
Цветовое пространство                    : YUV
Субдискретизация насыщенности            : 4:2:0
Битовая глубина                          : 8 бит
Тип развёртки                            : Прогрессивная
Метод сжатия                             : С потерями
Бит/(Пиксели*Кадры)                      : 0.201
Размер потока                            : 461 Мбайт (84%)
Библиотека кодирования                   : XviD 73

Аудио #1
Идентификатор                            : 1
Формат                                   : MPEG Audio
Версия формата                           : Version 1
Профиль формата                          : Layer 3
Настройки формата                        : Joint stereo / MS Stereo
Идентификатор кодека                     : 55
Идентификатор кодека/Подсказка           : MP3
Продолжительность                        : 46 м. 22 с.
Вид битрейта                             : Постоянный
Битрейт                                  : 128 Кбит/сек
Каналы                                   : 2 канала
Частота                                  : 48,0 КГц
Метод сжатия                             : С потерями
Размер потока                            : 42,5 Мбайт (8%)
Выравнивание                             : Соединение по промежуткам
Продолжительность промежутка             : 42  мс. (1,00 видеокадр)
Время предзагрузки промежутка            : 504  мс.

Аудио #2
Идентификатор                            : 2
Формат                                   : MPEG Audio
Версия формата                           : Version 1
Профиль формата                          : Layer 3
Настройки формата                        : Joint stereo / MS Stereo
Идентификатор кодека                     : 55
Идентификатор кодека/Подсказка           : MP3
Продолжительность                        : 46 м. 22 с.
Вид битрейта                             : Постоянный
Битрейт                                  : 128 Кбит/сек
Каналы                                   : 2 канала
Частота                                  : 48,0 КГц
Метод сжатия                             : С потерями
Размер потока                            : 42,5 Мбайт (8%)
Выравнивание                             : Соединение по промежуткам
Продолжительность промежутка             : 42  мс. (1,00 видеокадр)
Время предзагрузки промежутка            : 504  мс.
Когда раздача ведётся путём добавления новых серий, при каждом добавлении создётся новый торрент. Чтобы начать докачку новой серии, пользователям необходимо сделать следующее:
(1) остановить скачивание,
(2) удалить старый торрент у себя из клиента (старые серии удалять не надо),
(3) скачать новый торрент и запустить его у себя в клиенте вместо старого, при этом указать клиенту путь в старую папку, куда и должно происходить скачивание новых серий.
Ваш клиент при этом должен произвести хеширование (проверку) старой папки (если не производит сам - помогите ему сделать это), и будет докачивать только те серии, которых у вас ещё нет. Старые серии при этом не удаляются, а продолжают раздаваться!
Eсли вы уже удалили старые серии, то предотвратить повторную закачку старых серий можно, отжав галочку в соответсвующих местах при запуске нового торрента. По возможности, желательно не удалять старые серии как можно дольше, чтобы релизёр не столько продолжал раздавать старые серии, а смог сконцентрироваться на новых.


Трекер:  [ 13-Фев-2018 15:30 ]

  

Скачать .torrent

Размер .torrent файла 17 KB


Размер: 3.23 GB
Хэш (hash) релиза: 1867abee95492c485052a831e90a273fb14211d3
Подписка на обновления:

Торренты, похожие на 9-1-1 9-1-1 скачать торрент

Форум Название Автор Размер S L Добавлен
Зарубежные сериалы ·· Новые приключения Робин Гуда / The New Adventures of Robin Hood / Сезон: 2 / Серии: 1-6, 9, 12, 13 из 13 (Джо Копполетта / Joe Coppoletta) [1997, США, Боевик, приключения, VHSRip] MVO (ОРТ) Galfimbul 69767232696.5 GB 0 0 1484250618

22:50

12-Янв-17

Зарубежные сериалы ·· Майк и Молли / Mike and Molly / Сезон: 6 / Серии: 1-9 из 13 (Майкл Макдональд) [2016, Комедия, HDTVRip 1080p] VO (Кураж-Бамбей) + Original Galfimbul 1156121663110.77 GB 0 0 1465998471

16:47

15-Июн-16

Зарубежные сериалы ·· Майк и Молли / Mike and Molly / Сезон: 6 / Серии: 1-9 из 13 (Майкл Макдональд) [2016, Комедия, HDTVRip 720p] VO (Кураж-Бамбей) + Original Galfimbul 64459937416 GB 0 0 1465960478

06:14

15-Июн-16

Зарубежные сериалы ·· Майк и Молли / Mike and Molly / Сезон: 6 / Серии: 1-9 из 13 (Майкл Макдональд) [2016, Комедия, HDTVRip] VO (Кураж-Бамбей) + Original Galfimbul 22003200002.05 GB 0 0 1465958959

05:49

15-Июн-16

Российские сериалы ·· Восьмидесятые / Сезон: 6 / Серии: 1-9 из 13 (Роман Фокин) [2016, комедия, мелодрама, SATRip-AVC] Galfimbul 30339623142.83 GB 0 0 1465488736

19:12

9-Июн-16

Российские сериалы ·· Восьмидесятые / Сезон: 6 / Серии: 1-9 из 13 (Роман Фокин) [2016, Комедия, мелодрама, SATRip] Galfimbul 30027980802.8 GB 0 0 1465487067

18:44

9-Июн-16

Мультсериалы ·· Еноты / The Raccoons / Сезон: 1-3 / Серии: 1 из 11, 6-9 из 10, 1 из 13 (Кэвин Джиллис / Kevin Gillis) [1985-1993, Канада, семейный, приключения, комедия, DVDRemux] Dub Galfimbul 56713330385.28 GB 0 0 1468058598

13:03

9-Июл-16

Зарубежные сериалы ·· Трое это компания / Трое сверху / Three's Company / Сезон: 6 / Серии: 1-13 из 28 (Дэйв Пауэрс) [1981-1982, ситком, DVDRip] Original + Rus Subs (zare)9 Galfimbul 30828872192.87 GB 0 0 1464092400

15:20

24-Май-16

Мультсериалы ·· Еноты / The Raccoons / Сезон: 1-3 / Серии: 1,8-9 из 11, 6-9 из 10, 1 из 13 (Кэвин Джиллис / Kevin Gillis) [1985-1993, Канада, семейный, приключения, комедия, DVDRemux] Dub Galfimbul 83207120517.75 GB 0 0 1470992846

12:07

12-Авг-16

Мультсериалы ·· Еноты / The Raccoons / Сезон: 1-3 / Серии: 1,9 из 11, 6-9 из 10, 1 из 13 (Кэвин Джиллис / Kevin Gillis) [1985-1993, Канада, семейный, приключения, комедия, DVDRemux] Dub Galfimbul 69966651736.52 GB 0 0 1469363806

15:36

24-Июл-16

Мультсериалы ·· Да здравствует Король Джулиан / All Hail King Julien / Сезон: 1-3 (4) / Серии: 1-10 (10), 1-16 (16), 1-9 (13), 0 (13) / (Мэтт Энгстром / Matt Engstrom) [2014-2016, мультфильм, семейный, WEB-DLRip, WEBRip] VO (6 из 52) + Original + Sub (Rus, Eng) Galfimbul 1125006724410.48 GB 0 0 1480193060

23:44

26-Ноя-16

Мультсериалы ·· Ким Пять-с-Плюсом / Kim Possible / Сезоны: 1-4 / Серии: 1, 3, 6-9, 13, 15, 21, 42, 52-55, 57-65, 72, 74-76 из 87 (Стив Лотер / Steve Loter) [2002 - 2007, Приключения, комедия, DVB] Dub Galfimbul 1762471828916.41 GB 0 0 1356427080

12:18

25-Дек-12

Зарубежные сериалы ·· Майк и Молли / Mike and Molly / Сезон: 6 / Серии: 1-9,11 из 13 (Майкл Макдональд) [2016, Комедия, HDTVRip] VO (Кураж-Бамбей) + Original Galfimbul 24467333122.28 GB 0 0 1466564581

06:03

22-Июн-16

bot

Раздача обновлена!
Перекачайте торрент-файл.

bot

Раздача обновлена!
Перекачайте торрент-файл.

Хотите добавить комментарий к записи скачать торрент 9-1-1 9-1-1

!Обратная связь