www TamilRockers gs - Kaali (2018) [480p - HD AVC - MP4 - 1 2GB - Tamil] 33 minutes | Skin Deep Tattoo Magazine April 2012 HQ PDF | The Rock Reacts To Guess That Movie Challenge Ft. Skyscraper Cast

Скачать через торрент [DOC] Кривое зеркало Серии: 1 из 1 бесплатно русская версия torrent активатор

Статистика раздачи
Размер:  635 MB   |    Зарегистрирован:  5 месяцев 19 дней   |    .torrent скачан:  20 раз   |   
Раздают:  1  
   
загрузка...
 
Автор Сообщение

Galfimbul

avatar Galfimbul


Кривое зеркало

Год выпуска: 2002

Страна: Россия
Жанр: Юмор

Продолжительность: 02:04:37
Перевод: Не требуется
Субтитры: Нет

Режиссер: Константин Владимиров
В ролях: Евгений Петросян, Елена Степаненко, Александр Морозов, Игорь Христенко, Михаил Вашуков, Михаил Церишенко, Карен Аванесян, Михаил Смирнов, Виктор Разумовский, Алексей Буховцов, Михаил Белов, Обид Асомов

Описание: «Кривое зеркало» — юмористическая телепередача (театр под руководством Евгения Петросяна), изначально возникшая на «Первом канале», а затем перешедшая на канал «Россия-1». Спектакли театра весьма разнообразны: это и эстрадные мюзиклы, и традиционный, но в современном звучании театр миниатюр, это и пародийные дивертисменты программ, куда входят практически все виды разговорного жанра. Программа снималась в концертном зале «Академический» и в Государственном музыкальном театре национального искусства п/р Владимира Назарова

Качество: VHSRip
Формат: MP4
Видео: AVC, 480х360 (4:3), 580 kbps, 25.000 fps
Аудио: AAC, 2 ch, 48.0 kHz, 128 kbps
GeneralComplete name : D:\Видео\Кривое зеркало\01.mp4Format : MPEG-4Format profile : Base MediaCodec ID : isom (isom/avc1)File size : 635 MiBDuration : 2 h 4 minOverall bit rate mode : VariableOverall bit rate : 712 kb/sEncoded date : UTC 2018-01-30 04:33:13Tagged date : UTC 2018-01-30 04:33:13

VideoID : 1Format : AVCFormat/Info : Advanced Video CodecFormat profile : [email protected] settings : CABAC / 8 Ref FramesFormat settings, CABAC : YesFormat settings, ReFrames : 8 framesCodec ID : avc1Codec ID/Info : Advanced Video CodingDuration : 2 h 4 minBit rate : 580 kb/sMaximum bit rate : 3 129 kb/sWidth : 480 pixelsHeight : 360 pixelsDisplay aspect ratio : 4:3Frame rate mode : ConstantFrame rate : 25.000 FPSColor space : YUVChroma subsampling : 4:2:0Bit depth : 8 bitsScan type : ProgressiveBits/(Pixel*Frame) : 0.134Stream size : 517 MiB (81%)Writing library : x264 core 130 r2273 b3065e6Encoding settings : cabac=1 / ref=8 / deblock=1:-1:-1 / analyse=0x3:0x133 / me=umh / subme=9 / psy=1 / psy_rd=1.00:0.15 / mixed_ref=1 / me_range=25 / chroma_me=1 / trellis=2 / 8x8dct=1 / cqm=0 / deadzone=21,11 / fast_pskip=0 / chroma_qp_offset=-3 / threads=3 / lookahead_threads=1 / sliced_threads=0 / nr=0 / decimate=1 / interlaced=0 / bluray_compat=0 / constrained_intra=0 / bframes=9 / b_pyramid=2 / b_adapt=2 / b_bias=0 / direct=3 / weightb=1 / open_gop=0 / weightp=2 / keyint=250 / keyint_min=25 / scenecut=40 / intra_refresh=0 / rc_lookahead=50 / rc=2pass / mbtree=1 / bitrate=580 / ratetol=1.0 / qcomp=0.60 / qpmin=0 / qpmax=69 / qpstep=4 / cplxblur=20.0 / qblur=0.5 / ip_ratio=1.40 / aq=1:1.00Encoded date : UTC 2018-01-30 04:33:13Tagged date : UTC 2018-01-30 04:33:39

AudioID : 2Format : AACFormat/Info : Advanced Audio CodecFormat profile : LCCodec ID : mp4a-40-2Duration : 2 h 4 minBit rate mode : VariableBit rate : 128 kb/sMaximum bit rate : 133 kb/sChannel(s) : 2 channelsChannel positions : Front: L RSampling rate : 48.0 kHzFrame rate : 46.875 FPS (1024 SPF)Compression mode : LossyStream size : 114 MiB (18%)Encoded date : UTC 2018-01-30 04:33:34Tagged date : UTC 2018-01-30 04:33:39
Внимание! Раздача ведётся путём добавления новых выпусков; при каждом добавлении создётся новый торрент. Чтобы начать докачку нового выпуска, пользователям необходимо сделать следующее:
(1) остановить скачивание.
(2) удалить старый торрент у себя из клиента (старые выпуски удалять не надо).
(3) скачать новый торрент и запустить его у себя в клиенте вместо старого, при этом указать клиенту путь в старую папку куда и должно происходить скачивание новых выпусков.
Ваш клиент при этом должен произвести хеширование (проверку) старой папки (если не производит сам - помогите ему сделать это), и будет докачивать только те выпуски, которых у вас ещё нет. Старые выпуски при этом не удаляются, а продолжают раздаваться!
Eсли вы уже удалили старые выпуски, то предотвратить повторную закачку старых серий можно, отжав галочку в соответсвующих местах при запуске нового торрента


Трекер:  [ 30-Янв-2018 14:12 ]

  

Скачать .torrent

Размер .torrent файла 13 KB


Размер: 635 MB
Хэш (hash) релиза: c5fc47a82e73d699f65b99b88b6fd558752cb965

Еще никто не оставлял запись к записи скачать торрент [DOC] Кривое зеркало Серии: 1 из 1 . Будь первым!

!Обратная связь