Descargar | Capitulo 2×01 | 26.2100Mb

Victoria & Abdul torrent

, , - AdBlock. #!


3.8 GB   |    :  19    |    .torrent :  12    |   
1  
   
...
 

Galfimbul

avatar Galfimbul


/ Victoria & Abdul
History's most unlikely friendship

6.919 / 10 6.80 / 10
: 2017
: ,
: , ,
: 01:51:10

: ()
:
C: ,
:
: ,
: , ,
:
:
: , ,
:
: , , -, , , , , , ,

: $22 245 070
: + $43 159 741 = $65 404 811
: $623 162

: 3 2017
(): 14 2017, UPI

: 08 2018, Universal

: 18- , , , . . , , , . , , , . : BDRemux (NNMClub)
: BDRip
: HD (720p)
: M4V
: H.264, 1280x544, 2.35:1, 3 500 Kbps, 23.976 (24000/1001) fps

1: / (), AAC / 2.0 / 160 Kbps / 48.0 KHz
2: / , AAC / 2.0 / 160 Kbps / 48.0 KHz
3: / (), AC-3 / 5.1 / 448 Kbps / 48.0 KHz
4: / , AC-3 / 5.1 / 640 Kbps / 48.0 KHz

1:
2:
Sort Name: Victoria & Abdul
XID: Apple:vendor_id:2017-989939
contentID: 1288360133
Copyright: 2017 Focus Features LLC. All Rights Reserved.
Screenwriters: ,
Producers: , ,
Director:
Cast: , , -, , , , , , ,
Studio: Universal Pictures
Rating: 4
Long Description: 18- , , , . . , , , . , , , .
Description: 18- , , , . . , , , . , , , .
Release Date: 2017-09-03T08:00:00Z
Genre: Drama
Artist: Stephen Frears
Name: Victoria & Abdul
General
Complete name : /Users/imac/HandBrake/Victoria & Abdul (720p HD).m4v
Format : MPEG-4
Codec ID : M4V (M4V /M4A /mp42/isom)
File size : 3.80 GiB
Duration : 1h 51mn
Overall bit rate mode : Variable
Overall bit rate : 4 887 Kbps
Movie name : Victoria & Abdul
Performer : Stephen Frears
Director :
Actor : / / - / / / / / / /
Screenplay by : /
Producer : / /
Production studio : Universal Pictures
Genre : Drama
ContentType : Short Film
Description : 18- , , , . . , , , . , , , .
Recorded date : UTC 2017-09-03 08:00:00
Encoded date : UTC 2018-01-29 09:46:39
Tagged date : UTC 2018-01-29 09:53:02
Copyright : 2017 Focus Features LLC. All Rights Reserved.
Cover : Yes
Rating : None
Title/Sort : Victoria & Abdul
LongDescription : 18- , , , . . , , , . , , , .
HDVideo : Yes
AppleStoreCatalogID : 1288360133
Vendor : Apple:vendor_id:2017-989939
ContentRating : mpaa|PG-13|300|

Video #1
ID : 1
Format : AVC
Format/Info : Advanced Video Codec
Format profile : [email protected]
Format settings : 3 Ref Frames
Format settings, CABAC : No
Format settings, ReFrames : 3 frames
Codec ID : avc1
Codec ID/Info : Advanced Video Coding
Duration : 1h 51mn
Source duration : 1h 51mn
Bit rate : 3 500 Kbps
Width : 1 280 pixels
Height : 544 pixels
Display aspect ratio : 2.35:1
Frame rate mode : Variable
Frame rate : 23.976 (24000/1001) fps
Minimum frame rate : 23.974 fps
Maximum frame rate : 23.981 fps
Color space : YUV
Chroma subsampling : 4:2:0
Bit depth : 8 bits
Scan type : Progressive
Bits/(Pixel*Frame) : 0.210
Stream size : 2.70 GiB (71%)
Source stream size : 2.70 GiB (71%)
Title : Main Program
Writing library : x264 core 148 r2708 86b7198
Encoding settings : cabac=0 / ref=3 / deblock=1:-3:-3 / analyse=0x3:0x113 / me=umh / subme=9 / psy=1 / psy_rd=1.00:0.15 / mixed_ref=1 / me_range=32 / chroma_me=1 / trellis=0 / 8x8dct=1 / cqm=0 / deadzone=21,11 / fast_pskip=0 / chroma_qp_offset=-2 / threads=17 / lookahead_threads=1 / sliced_threads=0 / nr=0 / decimate=0 / interlaced=0 / bluray_compat=0 / constrained_intra=0 / bframes=3 / b_pyramid=0 / b_adapt=2 / b_bias=0 / direct=1 / weightb=0 / open_gop=0 / weightp=0 / keyint=240 / keyint_min=24 / scenecut=40 / intra_refresh=0 / rc_lookahead=40 / rc=2pass / mbtree=1 / bitrate=3500 / ratetol=1.0 / qcomp=0.65 / qpmin=0 / qpmax=69 / qpstep=4 / cplxblur=20.0 / qblur=0.5 / vbv_maxrate=9500 / vbv_bufsize=9500 / nal_hrd=none / filler=0 / ip_ratio=1.40 / aq=1:1.10
Language : English
Encoded date : UTC 2018-01-29 09:46:39
Tagged date : UTC 2018-01-29 09:46:46
Color range : Limited
Color primaries : BT.709
Transfer characteristics : BT.709
Matrix coefficients : BT.709
Menus : 8,9

Video #2
ID : 9
Format : JPEG
Codec ID : jpeg
Duration : 1h 51mn
Bit rate mode : Variable
Bit rate : 849 bps
Width : 640 pixels
Height : 272 pixels
Display aspect ratio : 2.35:1
Frame rate mode : Variable
Frame rate : 0.003 fps
Minimum frame rate : 0.002 fps
Maximum frame rate : 0.009 fps
Color space : YUV
Chroma subsampling : 4:2:0
Bit depth : 8 bits
Compression mode : Lossy
Bits/(Pixel*Frame) : 1.626
Stream size : 691 KiB (0%)
Title : Chapter Images
Language : English
Default : No
Encoded date : UTC 2018-01-29 09:47:47
Tagged date : UTC 2018-01-29 09:47:48
Menu For : 1

Audio #1
ID : 2
Format : AAC
Format/Info : Advanced Audio Codec
Format profile : LC
Codec ID : mp4a-40-2
Duration : 1h 51mn
Source duration : 1h 51mn
Bit rate mode : Variable
Bit rate : 153 Kbps
Maximum bit rate : 257 Kbps
Channel(s) : 2 channels
Channel positions : Front: L R
Sampling rate : 48.0 KHz
Frame rate : 46.875 fps (1024 SPF)
Compression mode : Lossy
Stream size : 122 MiB (3%)
Source stream size : 122 MiB (3%)
Title : Russian Stereo
Language : Russian
Default : Yes
Alternate group : 1
Encoded date : UTC 2018-01-29 09:46:39
Tagged date : UTC 2018-01-29 09:47:42
Fallback From : 4
Subtitles : 6

Audio #2
ID : 3
Format : AAC
Format/Info : Advanced Audio Codec
Format profile : LC
Codec ID : mp4a-40-2
Duration : 1h 51mn
Source duration : 1h 51mn
Bit rate mode : Variable
Bit rate : 154 Kbps
Maximum bit rate : 267 Kbps
Channel(s) : 2 channels
Channel positions : Front: L R
Sampling rate : 48.0 KHz
Frame rate : 46.875 fps (1024 SPF)
Compression mode : Lossy
Stream size : 122 MiB (3%)
Source stream size : 122 MiB (3%)
Title : English Stereo
Language : English
Default : No
Alternate group : 1
Encoded date : UTC 2018-01-29 09:46:39
Tagged date : UTC 2018-01-29 09:47:42
Fallback From : 5

Audio #3
ID : 4
Format : AC-3
Format/Info : Audio Coding 3
Codec ID : ac-3
Duration : 1h 51mn
Bit rate mode : Constant
Bit rate : 448 Kbps
Channel(s) : 6 channels
Channel positions : Front: L C R, Side: L R, LFE
Sampling rate : 48.0 KHz
Frame rate : 31.250 fps (1536 SPF)
Bit depth : 16 bits
Compression mode : Lossy
Stream size : 356 MiB (9%)
Title : Russian DD 5.1
Language : Russian
Service kind : Complete Main
Default : Inherited From: 2
Alternate group : 1
Encoded date : UTC 2018-01-29 09:46:39
Tagged date : UTC 2018-01-29 09:47:42
Fallback To : 2
Subtitles : 6

Audio #4
ID : 5
Format : AC-3
Format/Info : Audio Coding 3
Codec ID : ac-3
Duration : 1h 51mn
Bit rate mode : Constant
Bit rate : 640 Kbps
Channel(s) : 6 channels
Channel positions : Front: L C R, Side: L R, LFE
Sampling rate : 48.0 KHz
Frame rate : 31.250 fps (1536 SPF)
Bit depth : 16 bits
Compression mode : Lossy
Stream size : 509 MiB (13%)
Title : English DD 5.1
Language : English
Service kind : Complete Main
Default : No
Alternate group : 1
Encoded date : UTC 2018-01-29 09:46:39
Tagged date : UTC 2018-01-29 09:47:42
Fallback To : 3

Text #1
ID : 6
Format : Timed Text
Muxing mode : sbtl
Codec ID : tx3g
Duration : 1h 44mn
Bit rate mode : Variable
Bit rate : 2 bps
Stream size : 1.48 KiB (0%)
Title : Russian forced
Language : Russian
Default : Yes
Forced : Yes
Alternate group : 2
Encoded date : UTC 2018-01-29 09:46:39
Tagged date : UTC 2018-01-29 09:47:39
Subtitles For : 2,4

Text #2
ID : 7
Format : Timed Text
Muxing mode : sbtl
Codec ID : tx3g
Duration : 1h 43mn
Bit rate mode : Variable
Bit rate : 58 bps
Stream size : 44.2 KiB (0%)
Title : English full
Language : English
Default : No
Forced : No
Alternate group : 2
Encoded date : UTC 2018-01-29 09:46:39
Tagged date : UTC 2018-01-29 09:47:39

Menu #1
00:00:00.000 : Chapter 1
00:05:41.132 : Chapter 2
00:10:37.804 : Chapter 3
00:15:44.026 : Chapter 4
00:20:05.830 : Chapter 5
00:28:20.699 : Chapter 6
00:35:27.208 : Chapter 7
00:41:05.046 : Chapter 8
00:49:15.161 : Chapter 9
00:54:43.489 : Chapter 10
00:59:56.843 : Chapter 11
01:07:12.111 : Chapter 12
01:12:12.745 : Chapter 13
01:17:47.163 : Chapter 14
01:21:20.793 : Chapter 15
01:27:25.031 : Chapter 16
01:30:56.910 : Chapter 17
01:38:49.465 : Chapter 18
01:42:31.520 : Chapter 19
01:44:27.595 : Chapter 20

Menu #2
ID : 8
Codec ID : text
Duration : 1h 51mn
Language : English
Encoded date : UTC 2018-01-29 09:47:42
Tagged date : UTC 2018-01-29 09:47:42
Menu For : 1
00:00:00.000 : Chapter 1
00:05:41.132 : Chapter 2
00:10:37.804 : Chapter 3
00:15:44.026 : Chapter 4
00:20:05.830 : Chapter 5
00:28:20.699 : Chapter 6
00:35:27.208 : Chapter 7
00:41:05.046 : Chapter 8
00:49:15.161 : Chapter 9
00:54:43.489 : Chapter 10
00:59:56.843 : Chapter 11
01:07:12.111 : Chapter 12
01:12:12.745 : Chapter 13
01:17:47.163 : Chapter 14
01:21:20.793 : Chapter 15
01:27:25.031 : Chapter 16
01:30:56.910 : Chapter 17
01:38:49.465 : Chapter 18
01:42:31.520 : Chapter 19
01:44:27.595 : Chapter 20
Bit rate mode : VBR
x264 [info]: frame I:1359 Avg QP:12.47 size:126218
x264 [info]: frame P:55132 Avg QP:14.89 size: 36223
x264 [info]: frame B:103451 Avg QP:16.45 size: 7108
x264 [info]: consecutive B-frames: 3.3% 20.4% 32.7% 43.6%
x264 [info]: mb I I16..4: 7.5% 59.1% 33.4%
x264 [info]: mb P I16..4: 0.9% 4.4% 1.8% P16..4: 42.6% 30.1% 13.1% 0.0% 0.0% skip: 7.1%
x264 [info]: mb B I16..4: 0.1% 0.3% 0.1% B16..8: 39.5% 12.5% 1.9% direct: 3.4% skip:42.1% L0:40.7% L1:48.7% BI:10.6%
x264 [info]: 8x8 transform intra:61.0% inter:37.7%
x264 [info]: coded y,uvDC,uvAC intra: 87.3% 87.0% 76.2% inter: 23.6% 27.1% 21.6%
x264 [info]: i16 v,h,dc,p: 49% 10% 6% 35%
x264 [info]: i8 v,h,dc,ddl,ddr,vr,hd,vl,hu: 12% 8% 8% 10% 13% 13% 12% 12% 11%
x264 [info]: i4 v,h,dc,ddl,ddr,vr,hd,vl,hu: 12% 8% 4% 11% 16% 15% 13% 11% 9%
x264 [info]: i8c dc,h,v,p: 59% 13% 17% 11%
x264 [info]: ref P L0: 70.7% 17.5% 11.7%
x264 [info]: ref B L0: 76.3% 23.7%
x264 [info]: kb/s:3482.46
Apple TV, iPad, iPhone, iPod Touch.
Windows VLC media player

 ·  , , FAQ-
:  [ 29--2018 13:12 ]

  

.torrent

.torrent 38 KB


: 3.8 GB
(hash) : 8c0ee52dfb632d2b4a4fc5bcf52a0c5de70d7aa5
··
...

Victoria & Abdul . !

!