Featured Apps Games of the Day (2018/7/14) | 17 otra vez | Новинки кинопроката 2016

Скачать через торрент [VIDEO] Выживший The Revenant бесплатно русская версия torrent активатор

Статистика раздачи
Размер:  2.24 GB   |    Зарегистрирован:  5 месяцев 21 день   |    .torrent скачан:  25 раз   |   
Раздают:  1  
   
загрузка...
 
Автор Сообщение

Galfimbul

avatar Galfimbul


Выживший / The Revenant

Год выпуска: 2015

Страна: США / Anonymous Content, Appian Way, New Regency Pictures
Жанр: Триллер, Драма, Приключения, Вестерн
Продолжительность: 02:36:55
Перевод: Профессиональный (дублированный)
Субтитры: Русские (форсированные, полные), Английские (полные)
Оригинальная аудиодорожка: нет

Режиссер: Алехандро Гонсалес Иньярриту / Alejandro González Iñárritu
В ролях: Леонардо ДиКаприо, Том Харди, Донал Глисон, Уилл Поултер, Форрест Гудлак, Пол Андерсон, Кристоффер Йонер, Джошуа Бёрдж, Кристофер Розамунд, Дуан Ховард, Мила Нахеко, Фабрис Адд, Роберт Молони, Лукас Хаас, Эммануэль Билодо
Описание: Охотник Хью Гласс серьезно ранен на неизведанных просторах американского Дикого Запада. Товарищ Хью по отряду покорителей новых земель Джон Фицжеральд предательски оставляет его умирать в одиночестве. Теперь у Гласса осталось только одно оружие - его сила воли. Он готов бросить вызов первобытной природе, суровой зиме и враждебным племенам индейцев, только чтобы выжить и отомстить Фицжеральду.
Исходник: BDRemux 1080p
Качество: BDRip
Формат: MP4
Видео: AVC/H.264, 1280x720 (16:9), ~1915 Kbps, 23,976 fps
Аудио: Русский, AAC, 2 ch, 48 KHz, ~129 Kbps
ОбщееПолное имя : E:\Download\Выживший 2015 720p.mp4Формат : MPEG-4Профиль формата : Base MediaИдентификатор кодека : isom (isom/avc1)Размер файла : 2,24 ГбайтПродолжительность : 2 ч. 36 м.Режим общего битрейта : ПеременныйОбщий поток : 2040 Кбит/секДата кодирования : UTC 2017-11-22 06:23:23Дата пометки : UTC 2017-11-22 06:23:23

ВидеоИдентификатор : 1Формат : AVCФормат/Информация : Advanced Video CodecПрофиль формата : [email protected]Настройки формата : CABAC / 1 Ref FramesПараметр CABAC формата : ДаПараметр RefFrames формата : 1 кадрПараметр GOP формата : M=1, N=60Идентификатор кодека : avc1Идентификатор кодека/Информация : Advanced Video CodingПродолжительность : 2 ч. 36 м.Битрейт : 1915 Кбит/секМаксимальный битрейт : 8708 Кбит/секШирина : 1280 пикселейВысота : 720 пикселейСоотношение сторон : 16:9Режим частоты кадров : ПостоянныйЧастота кадров : 23,976 (24000/1001) кадра/секЦветовое пространство : YUVСубдискретизация насыщенности : 4:2:0Битовая глубина : 8 битТип развёртки : ПрогрессивнаяБит/(Пиксели*Кадры) : 0.087Размер потока : 2,09 Гбайт (94%)Дата кодирования : UTC 2017-11-22 06:23:23Дата пометки : UTC 2017-11-22 06:26:31Цветовой диапазон : LimitedОсновные цвета : BT.709Характеристики трансфера : BT.709Коэффициенты матрицы : BT.709

АудиоИдентификатор : 2Формат : AACФормат/Информация : Advanced Audio CodecПрофиль формата : MainИдентификатор кодека : mp4a-40-1Продолжительность : 2 ч. 36 м.Вид битрейта : ПеременныйБитрейт : 129 Кбит/секМаксимальный битрейт : 144 Кбит/секКаналы : 2 каналаРасположение каналов : Front: L RЧастота : 48,0 КГцЧастота кадров : 46,875 кадров/сек (1024 SPF)Метод сжатия : С потерямиРазмер потока : 144 Мбайт (6%)Заголовок : Дублированный (Лицензия BD EUR)Язык : RussianДата кодирования : UTC 2017-11-22 06:26:11Дата пометки : UTC 2017-11-22 06:26:31

Текст #1Идентификатор : 3Формат : Timed TextИдентификатор кодека : tx3gПродолжительность : 2 ч. 36 м.Вид битрейта : ПеременныйБитрейт : 6 бит/секРазмер потока : 6,61 Кбайт (0%)Заголовок : ForcedЯзык : RussianForced : НетДата кодирования : UTC 2017-11-22 06:26:31Дата пометки : UTC 2017-11-22 06:26:31

Текст #2Идентификатор : 4Формат : Timed TextИдентификатор кодека : tx3gПродолжительность : 2 ч. 36 м.Вид битрейта : ПеременныйБитрейт : 40 бит/секРазмер потока : 46,1 Кбайт (0%)Заголовок : FullЯзык : RussianForced : НетДата кодирования : UTC 2017-11-22 06:26:31Дата пометки : UTC 2017-11-22 06:26:31

Текст #3Идентификатор : 5Формат : Timed TextИдентификатор кодека : tx3gПродолжительность : 2 ч. 36 м.Вид битрейта : ПеременныйБитрейт : 26 бит/секРазмер потока : 29,6 Кбайт (0%)Заголовок : FullЯзык : EnglishForced : НетДата кодирования : UTC 2017-11-22 06:26:31Дата пометки : UTC 2017-11-22 06:26:31


Трекер:  [ 29-Янв-2018 11:12 ]

  

Скачать .torrent

Размер .torrent файла 3 KB


Размер: 2.24 GB
Хэш (hash) релиза: 971adf4a24598ab27067679dcc912ad0c4597c95

Еще никто не оставлял запись к записи скачать торрент [VIDEO] Выживший The Revenant . Будь первым!

!Обратная связь