[iPad] The Mountain Between Us torrent

, , - AdBlock. #!


1.92 GB   |    :  27    |    .torrent :  24    |   
1   1  
   
...
 

Galfimbul

avatar Galfimbul


/ The Mountain Between Us
, ?

6.575 / 10 6.30 / 10
: 2017
:
: , , , ,
: 01:51:49

: (iTunes)
:
C: ,
: -
: . , ,
: , ,
:
:
: , ,
:
: , , , , , , . , , ,

: $35 000 000
: $30 348 555
: + $30 742 631 = $61 091 186
: $1 381 259

: 9 2017
(): 5 2017, û

: 01 2018, û

: , , , . , , . . : BDRemux (NNMClub)
: BDRip
: SD (576p)
: M4V
: H.264, 1024x432, 2.40:1, 2 200 Kbps, 23.976 (24000/1001) fps

1: / (iTunes), AAC / 2.0 / 128 Kbps / 48.0 KHz
2: / , AAC / 2.0 / 128 Kbps / 48.0 KHz

1:
2:
Sort Name: Mountain Between Us
XID: Apple:vendor_id:2017-667687
contentID: 1291592964
Copyright: 2017 Twentieth Century Fox Film Corporation. All rights reserved.
Screenwriters: . , ,
Producers: , ,
Director: -
Cast: , , , , , , . , , ,
Studio: 20th Century Fox
Rating: 4
Long Description: , , , . , , . .
Description: , , , . , , . .
Release Date: 2017-09-09T08:00:00Z
Genre: Drama
Artist: Hany Abu-Assad
Name: The Mountain Between Us
General
Complete name : /Users/imac/HandBrake/The.Mountain.Between.Us.(SD).(pk).m4v
Format : MPEG-4
Codec ID : M4V (M4V /M4A /mp42/isom)
File size : 1.92 GiB
Duration : 1h 51mn
Overall bit rate mode : Variable
Overall bit rate : 2 458 Kbps
Movie name : The Mountain Between Us
Performer : Hany Abu-Assad
Director : -
Actor : / / / / / / . / / /
Screenplay by : . / /
Producer : / /
Production studio : 20th Century Fox
Genre : Drama
ContentType : Short Film
Description : , , , . , , . .
Recorded date : UTC 2017-09-09 08:00:00
Encoded date : UTC 2018-01-28 11:30:42
Tagged date : UTC 2018-01-28 11:32:22
Copyright : 2017 Twentieth Century Fox Film Corporation. All rights reserved.
Cover : Yes
Rating : None
Title/Sort : Mountain Between Us
LongDescription : , , , . , , . .
AppleStoreCatalogID : 1291592964
Vendor : Apple:vendor_id:2017-667687
ContentRating : mpaa|PG-13|300|

Video #1
ID : 1
Format : AVC
Format/Info : Advanced Video Codec
Format profile : [email protected]
Format settings : CABAC / 9 Ref Frames
Format settings, CABAC : Yes
Format settings, ReFrames : 9 frames
Codec ID : avc1
Codec ID/Info : Advanced Video Coding
Duration : 1h 51mn
Source duration : 1h 51mn
Bit rate : 2 200 Kbps
Width : 1 024 pixels
Height : 432 pixels
Display aspect ratio : 2.40:1
Frame rate mode : Variable
Frame rate : 23.976 (24000/1001) fps
Minimum frame rate : 23.974 fps
Maximum frame rate : 23.981 fps
Color space : YUV
Chroma subsampling : 4:2:0
Bit depth : 8 bits
Scan type : Progressive
Bits/(Pixel*Frame) : 0.207
Stream size : 1.72 GiB (89%)
Source stream size : 1.72 GiB (89%)
Title : Main Program
Writing library : x264 core 148 r2708 86b7198
Encoding settings : cabac=1 / ref=9 / deblock=1:0:0 / analyse=0x3:0x113 / me=umh / subme=9 / psy=1 / psy_rd=1.00:0.00 / mixed_ref=1 / me_range=32 / chroma_me=1 / trellis=1 / 8x8dct=1 / cqm=0 / deadzone=21,11 / fast_pskip=1 / chroma_qp_offset=-2 / threads=13 / lookahead_threads=1 / sliced_threads=0 / nr=0 / decimate=1 / interlaced=0 / bluray_compat=0 / constrained_intra=0 / bframes=6 / b_pyramid=2 / b_adapt=2 / b_bias=0 / direct=1 / weightb=1 / open_gop=0 / weightp=2 / keyint=240 / keyint_min=24 / scenecut=40 / intra_refresh=0 / rc_lookahead=40 / rc=2pass / mbtree=1 / bitrate=2200 / ratetol=1.0 / qcomp=0.60 / qpmin=0 / qpmax=69 / qpstep=4 / cplxblur=20.0 / qblur=0.5 / ip_ratio=1.40 / aq=1:1.00
Language : English
Encoded date : UTC 2018-01-28 11:30:42
Tagged date : UTC 2018-01-28 11:30:49
Color range : Limited
Color primaries : BT.709
Transfer characteristics : BT.709
Matrix coefficients : BT.709
Menus : 6,7

Video #2
ID : 7
Format : JPEG
Codec ID : jpeg
Duration : 1h 51mn
Bit rate mode : Variable
Bit rate : 902 bps
Width : 640 pixels
Height : 270 pixels
Display aspect ratio : 2.40:1
Frame rate mode : Variable
Frame rate : 0.004 fps
Minimum frame rate : 0.002 fps
Maximum frame rate : 0.006 fps
Color space : YUV
Chroma subsampling : 4:2:0
Bit depth : 8 bits
Compression mode : Lossy
Bits/(Pixel*Frame) : 1.305
Stream size : 661 KiB (0%)
Title : Chapter Images
Language : English
Default : No
Encoded date : UTC 2018-01-28 11:30:59
Tagged date : UTC 2018-01-28 11:31:00
Menu For : 1

Audio #1
ID : 2
Format : AAC
Format/Info : Advanced Audio Codec
Format profile : LC
Codec ID : mp4a-40-2
Duration : 1h 51mn
Source duration : 1h 51mn
Bit rate mode : Variable
Bit rate : 125 Kbps
Maximum bit rate : 195 Kbps
Channel(s) : 2 channels
Channel positions : Front: L R
Sampling rate : 48.0 KHz
Frame rate : 46.875 fps (1024 SPF)
Compression mode : Lossy
Stream size : 100 MiB (5%)
Source stream size : 100 MiB (5%)
Title : Russian Stereo
Language : Russian
Default : Yes
Alternate group : 1
Encoded date : UTC 2018-01-28 11:30:42
Tagged date : UTC 2018-01-28 11:30:54

Audio #2
ID : 3
Format : AAC
Format/Info : Advanced Audio Codec
Format profile : LC
Codec ID : mp4a-40-2
Duration : 1h 51mn
Source duration : 1h 51mn
Bit rate mode : Variable
Bit rate : 125 Kbps
Maximum bit rate : 203 Kbps
Channel(s) : 2 channels
Channel positions : Front: L R
Sampling rate : 48.0 KHz
Frame rate : 46.875 fps (1024 SPF)
Compression mode : Lossy
Stream size : 99.7 MiB (5%)
Source stream size : 99.7 MiB (5%)
Title : English Stereo
Language : English
Default : No
Alternate group : 1
Encoded date : UTC 2018-01-28 11:30:42
Tagged date : UTC 2018-01-28 11:30:54

Text #1
ID : 4
Format : Timed Text
Muxing mode : sbtl
Codec ID : tx3g
Duration : 1h 46mn
Bit rate mode : Variable
Bit rate : 54 bps
Stream size : 42.1 KiB (0%)
Title : Russian full
Language : Russian
Default : Yes
Forced : No
Alternate group : 2
Encoded date : UTC 2018-01-28 11:30:42
Tagged date : UTC 2018-01-28 11:30:47

Text #2
ID : 5
Format : Timed Text
Muxing mode : sbtl
Codec ID : tx3g
Duration : 1h 48mn
Bit rate mode : Variable
Bit rate : 39 bps
Stream size : 30.6 KiB (0%)
Title : English full
Language : English
Default : No
Forced : No
Alternate group : 2
Encoded date : UTC 2018-01-28 11:30:42
Tagged date : UTC 2018-01-28 11:30:47

Menu #1
00:00:00.000 : 00:00:00.000
00:02:58.595 : 00:02:58.595
00:08:52.782 : 00:08:52.782
00:13:15.378 : 00:13:15.378
00:16:21.481 : 00:16:21.480
00:21:36.253 : 00:21:36.253
00:26:51.985 : 00:26:51.985
00:31:53.370 : 00:31:53.370
00:38:56.084 : 00:38:56.084
00:43:45.373 : 00:43:45.373
00:51:04.311 : 00:51:04.311
00:57:28.737 : 00:57:28.737
01:01:22.721 : 01:01:22.721
01:04:39.459 : 01:04:39.417
01:07:41.057 : 01:07:41.057
01:11:06.429 : 01:11:06.429
01:14:56.534 : 01:14:56.534
01:19:15.125 : 01:19:15.125
01:23:48.398 : 01:23:48.398
01:27:52.476 : 01:27:52.476
01:32:13.570 : 01:32:13.570
01:35:41.653 : 01:35:41.653
01:41:48.269 : 01:41:48.269
01:45:22.483 : 01:45:22.483

Menu #2
ID : 6
Codec ID : text
Duration : 1h 51mn
Language : English
Encoded date : UTC 2018-01-28 11:30:54
Tagged date : UTC 2018-01-28 11:30:54
Bit rate mode : CBR
Menu For : 1
00:00:00.000 : 00:00:00.000
00:02:58.595 : 00:02:58.595
00:08:52.782 : 00:08:52.782
00:13:15.378 : 00:13:15.378
00:16:21.481 : 00:16:21.480
00:21:36.253 : 00:21:36.253
00:26:51.985 : 00:26:51.985
00:31:53.370 : 00:31:53.370
00:38:56.084 : 00:38:56.084
00:43:45.373 : 00:43:45.373
00:51:04.311 : 00:51:04.311
00:57:28.737 : 00:57:28.737
01:01:22.721 : 01:01:22.721
01:04:39.459 : 01:04:39.417
01:07:41.057 : 01:07:41.057
01:11:06.429 : 01:11:06.429
01:14:56.534 : 01:14:56.534
01:19:15.125 : 01:19:15.125
01:23:48.398 : 01:23:48.398
01:27:52.476 : 01:27:52.476
01:32:13.570 : 01:32:13.570
01:35:41.653 : 01:35:41.653
01:41:48.269 : 01:41:48.269
01:45:22.483 : 01:45:22.483
x264 [info]: frame I:1244 Avg QP: 9.12 size:101067
x264 [info]: frame P:34501 Avg QP:11.84 size: 29288
x264 [info]: frame B:125113 Avg QP:14.84 size: 5656
x264 [info]: consecutive B-frames: 2.0% 2.1% 4.9% 24.9% 19.5% 31.7% 15.0%
x264 [info]: mb I I16..4: 9.2% 64.5% 26.2%
x264 [info]: mb P I16..4: 0.8% 5.7% 1.5% P16..4: 31.0% 28.0% 23.0% 0.0% 0.0% skip:10.1%
x264 [info]: mb B I16..4: 0.1% 0.4% 0.1% B16..8: 33.2% 12.2% 3.9% direct: 3.5% skip:46.5% L0:45.3% L1:41.6% BI:13.1%
x264 [info]: 8x8 transform intra:69.4% inter:62.9%
x264 [info]: coded y,uvDC,uvAC intra: 87.8% 80.5% 71.5% inter: 25.0% 19.2% 8.5%
x264 [info]: i16 v,h,dc,p: 44% 11% 8% 36%
x264 [info]: i8 v,h,dc,ddl,ddr,vr,hd,vl,hu: 12% 10% 11% 9% 12% 12% 11% 12% 13%
x264 [info]: i4 v,h,dc,ddl,ddr,vr,hd,vl,hu: 10% 7% 5% 9% 15% 15% 13% 12% 13%
x264 [info]: i8c dc,h,v,p: 56% 17% 15% 12%
x264 [info]: Weighted P-Frames: Y:3.9% UV:2.2%
x264 [info]: ref P L0: 49.7% 8.0% 15.2% 7.3% 5.7% 4.8% 4.1% 2.6% 2.4% 0.1% 0.0%
x264 [info]: ref B L0: 69.4% 12.7% 7.0% 3.6% 2.8% 2.4% 1.6% 0.5%
x264 [info]: ref B L1: 93.2% 6.8%
x264 [info]: kb/s:2198.68
Apple TV, iPad, iPhone, iPod Touch.
Windows VLC media player

 ·  , , FAQ-
:  [ 28--2018 15:12 ]

  

.torrent

.torrent 39 KB


: 1.92 GB
(hash) : 37c53c02633652b2da2adace45e14d5c3c4effb4
··
...

[iPad] The Mountain Between Us . !

!