Portlandia
Season 8

[iPad] Acts of Vengeance torrent

, , - AdBlock. #!


1.5 GB   |    :  27    |    .torrent :  26    |   
1  
   
...
 

Galfimbul

avatar Galfimbul


/ Acts of Vengeance


5.651 / 10 5.60 / 10
: 2017
:
: ,
: 01:27:20

: (iTunes)
:
C: ,
:
:
: , ,
:
:
: , ,
: , ,
: , , , , , , , , , .

: $9 111

: 27 2017
(): 23 2017, MEGOGO Distribution

: . , . : . . , , , . : BDRemux ((NNMClub)
: BDRip
: SD (576p)
: M4V
: H.264, 1024x560, 1.85:1, 2 200 Kbps, 23.976 (24000/1001) fps

1: / (iTunes), AAC / 2.0 / 128 Kbps / 48.0 KHz
2: / , AAC / 2.0 / 128 Kbps / 48.0 KHz

1:
2:
Sort Name: Acts of Vengeance
XID: Apple:vendor_id:2017-1009473
contentID: 1293607266
Screenwriters:
Producers: , ,
Director:
Cast: , , , , , , , , .
Studio: Saban
Rating: 5
Long Description: . , . : . . , , , .
Description: . , . : .
Release Date: 2017-10-27T07:00:00Z
Genre: Action & Adventure
Artist: Isaac Florentine
Name: Acts of Vengeance
General
Complete name : /Users/imac/HandBrake/Acts.of.Vengeance.(SD).(pk).m4v
Format : MPEG-4
Codec ID : M4V (M4V /M4A /mp42/isom)
File size : 1.50 GiB
Duration : 1h 27mn
Overall bit rate mode : Variable
Overall bit rate : 2 458 Kbps
Movie name : Acts of Vengeance
Performer : Isaac Florentine
Director :
Actor : / / / / / / / / .
Screenplay by :
Producer : / /
Production studio : Saban
Genre : Action & Adventure
ContentType : Short Film
Description : . , . : .
Recorded date : UTC 2017-10-27 07:00:00
Encoded date : UTC 2018-01-28 11:08:06
Tagged date : UTC 2018-01-28 11:09:10
Cover : Yes
Rating : None
Title/Sort : Acts of Vengeance
LongDescription : . , . : . . , , , .
AppleStoreCatalogID : 1293607266
Vendor : Apple:vendor_id:2017-1009473
ContentRating : mpaa|R|400|

Video #1
ID : 1
Format : AVC
Format/Info : Advanced Video Codec
Format profile : [email protected]
Format settings : CABAC / 9 Ref Frames
Format settings, CABAC : Yes
Format settings, ReFrames : 9 frames
Codec ID : avc1
Codec ID/Info : Advanced Video Coding
Duration : 1h 27mn
Source duration : 1h 27mn
Bit rate : 2 200 Kbps
Width : 1 024 pixels
Height : 560 pixels
Display aspect ratio : 1.85:1
Frame rate mode : Variable
Frame rate : 23.976 (24000/1001) fps
Minimum frame rate : 23.974 fps
Maximum frame rate : 23.981 fps
Color space : YUV
Chroma subsampling : 4:2:0
Bit depth : 8 bits
Scan type : Progressive
Bits/(Pixel*Frame) : 0.160
Stream size : 1.34 GiB (89%)
Source stream size : 1.34 GiB (89%)
Title : Main Program
Writing library : x264 core 148 r2708 86b7198
Encoding settings : cabac=1 / ref=9 / deblock=1:0:0 / analyse=0x3:0x113 / me=umh / subme=9 / psy=1 / psy_rd=1.00:0.00 / mixed_ref=1 / me_range=32 / chroma_me=1 / trellis=1 / 8x8dct=1 / cqm=0 / deadzone=21,11 / fast_pskip=1 / chroma_qp_offset=-2 / threads=17 / lookahead_threads=1 / sliced_threads=0 / nr=0 / decimate=1 / interlaced=0 / bluray_compat=0 / constrained_intra=0 / bframes=6 / b_pyramid=2 / b_adapt=2 / b_bias=0 / direct=1 / weightb=1 / open_gop=0 / weightp=2 / keyint=240 / keyint_min=24 / scenecut=40 / intra_refresh=0 / rc_lookahead=40 / rc=2pass / mbtree=1 / bitrate=2200 / ratetol=1.0 / qcomp=0.60 / qpmin=0 / qpmax=69 / qpstep=4 / cplxblur=20.0 / qblur=0.5 / ip_ratio=1.40 / aq=1:1.00
Language : English
Encoded date : UTC 2018-01-28 11:08:06
Tagged date : UTC 2018-01-28 11:08:11
Color range : Limited
Color primaries : BT.709
Transfer characteristics : BT.709
Matrix coefficients : BT.709
Menus : 6,7

Video #2
ID : 7
Format : JPEG
Codec ID : jpeg
Duration : 1h 27mn
Bit rate mode : Variable
Bit rate : 792 bps
Width : 640 pixels
Height : 350 pixels
Display aspect ratio : 1.85:1
Frame rate mode : Variable
Frame rate : 0.003 fps
Minimum frame rate : 0.002 fps
Maximum frame rate : 1.142 fps
Color space : YUV
Chroma subsampling : 4:2:0
Bit depth : 8 bits
Compression mode : Lossy
Bits/(Pixel*Frame) : 1.179
Stream size : 548 KiB (0%)
Title : Chapter Images
Language : English
Default : No
Encoded date : UTC 2018-01-28 11:08:18
Tagged date : UTC 2018-01-28 11:08:18
Menu For : 1

Audio #1
ID : 2
Format : AAC
Format/Info : Advanced Audio Codec
Format profile : LC
Codec ID : mp4a-40-2
Duration : 1h 27mn
Source duration : 1h 27mn
Bit rate mode : Variable
Bit rate : 126 Kbps
Maximum bit rate : 185 Kbps
Channel(s) : 2 channels
Channel positions : Front: L R
Sampling rate : 48.0 KHz
Frame rate : 46.875 fps (1024 SPF)
Compression mode : Lossy
Stream size : 78.4 MiB (5%)
Source stream size : 78.4 MiB (5%)
Title : Russian Stereo
Language : Russian
Default : Yes
Alternate group : 1
Encoded date : UTC 2018-01-28 11:08:06
Tagged date : UTC 2018-01-28 11:08:14

Audio #2
ID : 3
Format : AAC
Format/Info : Advanced Audio Codec
Format profile : LC
Codec ID : mp4a-40-2
Duration : 1h 27mn
Source duration : 1h 27mn
Bit rate mode : Variable
Bit rate : 127 Kbps
Maximum bit rate : 192 Kbps
Channel(s) : 2 channels
Channel positions : Front: L R
Sampling rate : 48.0 KHz
Frame rate : 46.875 fps (1024 SPF)
Compression mode : Lossy
Stream size : 79.3 MiB (5%)
Source stream size : 79.3 MiB (5%)
Title : English Stereo
Language : English
Default : No
Alternate group : 1
Encoded date : UTC 2018-01-28 11:08:06
Tagged date : UTC 2018-01-28 11:08:14

Text #1
ID : 4
Format : Timed Text
Muxing mode : sbtl
Codec ID : tx3g
Duration : 1h 23mn
Bit rate mode : Variable
Bit rate : 55 bps
Stream size : 33.6 KiB (0%)
Title : Russian full
Language : Russian
Default : Yes
Forced : No
Alternate group : 2
Encoded date : UTC 2018-01-28 11:08:06
Tagged date : UTC 2018-01-28 11:08:08

Text #2
ID : 5
Format : Timed Text
Muxing mode : sbtl
Codec ID : tx3g
Duration : 1h 23mn
Bit rate mode : Variable
Bit rate : 33 bps
Stream size : 20.0 KiB (0%)
Title : English full
Language : English
Default : No
Forced : No
Alternate group : 2
Encoded date : UTC 2018-01-28 11:08:06
Tagged date : UTC 2018-01-28 11:08:08

Menu #1
00:00:00.000 : Chapter 1
00:05:16.149 : Chapter 2
00:11:00.451 : Chapter 3
00:17:49.318 : Chapter 5
00:24:10.699 : Chapter 6
00:29:07.037 : Chapter 8
00:35:13.987 : Chapter 9
00:39:11.808 : Chapter 11
00:46:29.287 : Chapter 12
00:52:56.548 : Chapter 13
01:00:37.634 : Chapter 14
01:05:27.465 : Chapter 15
01:09:15.026 : Chapter 16
01:09:15.902 : Chapter 17
01:13:51.969 : Chapter 18
01:21:31.637 : Chapter 19
01:23:55.364 : Chapter 20

Menu #2
ID : 6
Codec ID : text
Duration : 1h 27mn
Language : English
Encoded date : UTC 2018-01-28 11:08:14
Tagged date : UTC 2018-01-28 11:08:14
Menu For : 1
00:00:00.000 : Chapter 1
00:05:16.149 : Chapter 2
00:11:00.451 : Chapter 3
00:17:49.318 : Chapter 5
00:24:10.699 : Chapter 6
00:29:07.037 : Chapter 8
00:35:13.987 : Chapter 9
00:39:11.808 : Chapter 11
00:46:29.287 : Chapter 12
00:52:56.548 : Chapter 13
01:00:37.634 : Chapter 14
01:05:27.465 : Chapter 15
01:09:15.026 : Chapter 16
01:09:15.902 : Chapter 17
01:13:51.969 : Chapter 18
01:21:31.637 : Chapter 19
01:23:55.364 : Chapter 20
Bit rate mode : VBR
x264 [info]: frame I:948 Avg QP:13.03 size: 87971
x264 [info]: frame P:32001 Avg QP:16.16 size: 23761
x264 [info]: frame B:92691 Avg QP:18.30 size: 6426
x264 [info]: consecutive B-frames: 4.9% 4.4% 12.1% 18.8% 18.9% 32.8% 8.2%
x264 [info]: mb I I16..4: 13.2% 63.4% 23.3%
x264 [info]: mb P I16..4: 2.3% 9.2% 2.4% P16..4: 38.0% 23.8% 12.8% 0.0% 0.0% skip:11.4%
x264 [info]: mb B I16..4: 0.2% 0.8% 0.3% B16..8: 39.0% 8.5% 2.1% direct: 3.7% skip:45.6% L0:44.8% L1:45.6% BI: 9.7%
x264 [info]: 8x8 transform intra:65.2% inter:73.5%
x264 [info]: coded y,uvDC,uvAC intra: 76.5% 79.9% 54.9% inter: 21.8% 21.0% 4.2%
x264 [info]: i16 v,h,dc,p: 32% 16% 7% 46%
x264 [info]: i8 v,h,dc,ddl,ddr,vr,hd,vl,hu: 11% 9% 6% 9% 13% 13% 13% 12% 13%
x264 [info]: i4 v,h,dc,ddl,ddr,vr,hd,vl,hu: 10% 9% 4% 9% 15% 14% 14% 11% 13%
x264 [info]: i8c dc,h,v,p: 39% 25% 19% 16%
x264 [info]: Weighted P-Frames: Y:3.5% UV:1.6%
x264 [info]: ref P L0: 53.2% 10.7% 14.8% 6.0% 4.7% 3.5% 3.1% 1.9% 1.9% 0.2% 0.0%
x264 [info]: ref B L0: 74.7% 11.5% 5.8% 2.8% 2.0% 1.7% 1.1% 0.4%
x264 [info]: ref B L1: 94.2% 5.8%
x264 [info]: kb/s:2197.44
Apple TV, iPad, iPhone, iPod Touch.
Windows VLC media player

 ·  , , FAQ-
:  [ 28--2018 14:42 ]

  

.torrent

.torrent 30 KB


: 1.5 GB
(hash) : a7741d9e995b93f4bcc1f66314f7aa83aa536acd
··
...

[iPad] Acts of Vengeance . !

!