Maryaada
Love You Zindagi

[iPad] My Pet Dinosaur torrent

, , - AdBlock. #!


1.61 GB   |    :  27    |    .torrent :  20    |   
1  
   
...
 

Galfimbul

avatar Galfimbul


/ My Pet Dinosaur
,

4.936 / 10 4.00 / 10
: 2017
:
: , ,
: 01:33:48

: (iTunes)
:
C:
:
:
: , ,
:
:
: , , , , , , , , -, Jack Mars

: $31 337

: 22 2017
(): 28 2017,

: 22 2018,

: . . . , , . , . : BDRemux (NNMClub)
: BDRip
: SD (576p)
: M4V
: H.264, 1024x432, 2.40:1, 2 200 Kbps, 23.976 (24000/1001) fps

1: / (iTunes), AAC / 2.0 / 128 Kbps / 48.0 KHz
2: / , AAC / 2.0 / 128 Kbps / 48.0 KHz
Sort Name:
XID: Apple:vendor_id:2017-1008929
contentID: 1330038081
Copyright: 2017 Empress Road Pictures
Screenwriters:
Producers: , ,
Director:
Cast: , , , , , ...
Studio: Hive Studios International
Rating: 133
Long Description: . . . , , . , .
Description: . . .
Release Date: 2017-12-28T08:00:00Z
Genre:
Artist:
Name:
General
Complete name : /Users/imac/HandBrake/My.Pet.Dinosaur.(576p).(pk).m4v
Format : MPEG-4
Codec ID : M4V (M4V /M4A /mp42/isom)
File size : 1.61 GiB
Duration : 1h 33mn
Overall bit rate mode : Variable
Overall bit rate : 2 461 Kbps
Movie name :
Performer :
Director :
Actor : / / / / / ...
Screenplay by :
Producer : / /
Production studio : Hive Studios International
Genre :
ContentType : Short Film
Description : . . .
Recorded date : UTC 2017-12-28 08:00:00
Encoded date : UTC 2018-01-28 10:24:57
Tagged date : UTC 2018-01-28 10:25:46
Copyright : 2017 Empress Road Pictures
Cover : Yes
Rating : None
Title/Sort :
LongDescription : . . . , , . , .
AppleStoreCatalogID : 1330038081
Vendor : Apple:vendor_id:2017-1008929
ContentRating : ru-movie|6+|150|

Video #1
ID : 1
Format : AVC
Format/Info : Advanced Video Codec
Format profile : [email protected]
Format settings : CABAC / 9 Ref Frames
Format settings, CABAC : Yes
Format settings, ReFrames : 9 frames
Codec ID : avc1
Codec ID/Info : Advanced Video Coding
Duration : 1h 33mn
Source duration : 1h 33mn
Bit rate : 2 200 Kbps
Width : 1 024 pixels
Height : 432 pixels
Display aspect ratio : 2.40:1
Frame rate mode : Variable
Frame rate : 23.976 (24000/1001) fps
Minimum frame rate : 23.974 fps
Maximum frame rate : 23.981 fps
Color space : YUV
Chroma subsampling : 4:2:0
Bit depth : 8 bits
Scan type : Progressive
Bits/(Pixel*Frame) : 0.207
Stream size : 1.44 GiB (89%)
Source stream size : 1.44 GiB (89%)
Title : Main Program
Writing library : x264 core 148 r2708 86b7198
Encoding settings : cabac=1 / ref=9 / deblock=1:0:0 / analyse=0x3:0x113 / me=umh / subme=9 / psy=1 / psy_rd=1.00:0.00 / mixed_ref=1 / me_range=32 / chroma_me=1 / trellis=1 / 8x8dct=1 / cqm=0 / deadzone=21,11 / fast_pskip=1 / chroma_qp_offset=-2 / threads=13 / lookahead_threads=1 / sliced_threads=0 / nr=0 / decimate=1 / interlaced=0 / bluray_compat=0 / constrained_intra=0 / bframes=6 / b_pyramid=2 / b_adapt=2 / b_bias=0 / direct=1 / weightb=1 / open_gop=0 / weightp=2 / keyint=240 / keyint_min=24 / scenecut=40 / intra_refresh=0 / rc_lookahead=40 / rc=2pass / mbtree=1 / bitrate=2200 / ratetol=1.0 / qcomp=0.60 / qpmin=0 / qpmax=69 / qpstep=4 / cplxblur=20.0 / qblur=0.5 / ip_ratio=1.40 / aq=1:1.00
Language : English
Encoded date : UTC 2018-01-28 10:24:57
Tagged date : UTC 2018-01-28 10:25:02
Color range : Limited
Color primaries : BT.709
Transfer characteristics : BT.709
Matrix coefficients : BT.709
Menus : 4,5

Video #2
ID : 5
Format : JPEG
Codec ID : jpeg
Duration : 1h 33mn
Bit rate mode : Variable
Bit rate : 604 bps
Width : 640 pixels
Height : 270 pixels
Display aspect ratio : 2.40:1
Frame rate mode : Constant
Frame rate : 0.002 fps
Color space : YUV
Chroma subsampling : 4:2:0
Bit depth : 8 bits
Compression mode : Lossy
Bits/(Pixel*Frame) : 1.748
Stream size : 442 KiB (0%)
Title : Chapter Images
Language : English
Default : No
Encoded date : UTC 2018-01-28 10:25:10
Tagged date : UTC 2018-01-28 10:25:10
Menu For : 1

Audio #1
ID : 2
Format : AAC
Format/Info : Advanced Audio Codec
Format profile : LC
Codec ID : mp4a-40-2
Duration : 1h 33mn
Source duration : 1h 33mn
Bit rate mode : Variable
Bit rate : 128 Kbps
Maximum bit rate : 195 Kbps
Channel(s) : 2 channels
Channel positions : Front: L R
Sampling rate : 48.0 KHz
Frame rate : 46.875 fps (1024 SPF)
Compression mode : Lossy
Stream size : 86.2 MiB (5%)
Source stream size : 86.2 MiB (5%)
Title : Russian Stereo
Language : Russian
Default : Yes
Alternate group : 1
Encoded date : UTC 2018-01-28 10:24:57
Tagged date : UTC 2018-01-28 10:25:06

Audio #2
ID : 3
Format : AAC
Format/Info : Advanced Audio Codec
Format profile : LC
Codec ID : mp4a-40-2
Duration : 1h 33mn
Source duration : 1h 33mn
Bit rate mode : Variable
Bit rate : 127 Kbps
Maximum bit rate : 203 Kbps
Channel(s) : 2 channels
Channel positions : Front: L R
Sampling rate : 48.0 KHz
Frame rate : 46.875 fps (1024 SPF)
Compression mode : Lossy
Stream size : 85.4 MiB (5%)
Source stream size : 85.4 MiB (5%)
Title : English Stereo
Language : English
Default : No
Alternate group : 1
Encoded date : UTC 2018-01-28 10:24:57
Tagged date : UTC 2018-01-28 10:25:06

Menu #1
00:00:00.000 : Chapter 1
00:09:21.436 : Chapter 2
00:17:58.786 : Chapter 3
00:25:10.384 : Chapter 4
00:32:31.950 : Chapter 5
00:40:29.177 : Chapter 6
00:47:27.345 : Chapter 7
00:54:54.082 : Chapter 8
01:02:29.287 : Chapter 9
01:11:36.334 : Chapter 10
01:19:15.251 : Chapter 11
01:26:00.322 : Chapter 12

Menu #2
ID : 4
Codec ID : text
Duration : 1h 33mn
Language : English
Encoded date : UTC 2018-01-28 10:25:06
Tagged date : UTC 2018-01-28 10:25:06
Menu For : 1
00:00:00.000 : Chapter 1
00:09:21.436 : Chapter 2
00:17:58.786 : Chapter 3
00:25:10.384 : Chapter 4
00:32:31.950 : Chapter 5
00:40:29.177 : Chapter 6
00:47:27.345 : Chapter 7
00:54:54.082 : Chapter 8
01:02:29.287 : Chapter 9
01:11:36.334 : Chapter 10
01:19:15.251 : Chapter 11
01:26:00.322 : Chapter 12
Bit rate mode : VBR
x264 [info]: frame I:1406 Avg QP:10.76 size: 92740
x264 [info]: frame P:29997 Avg QP:13.56 size: 26269
x264 [info]: frame B:103540 Avg QP:16.53 size: 6061
x264 [info]: consecutive B-frames: 2.4% 2.3% 7.8% 28.1% 17.4% 26.4% 15.6%
x264 [info]: mb I I16..4: 9.2% 62.8% 28.0%
x264 [info]: mb P I16..4: 1.2% 7.1% 2.4% P16..4: 32.5% 25.9% 20.0% 0.0% 0.0% skip:10.9%
x264 [info]: mb B I16..4: 0.1% 0.6% 0.3% B16..8: 31.0% 11.3% 3.8% direct: 4.3% skip:48.7% L0:43.1% L1:42.2% BI:14.7%
x264 [info]: 8x8 transform intra:64.6% inter:63.3%
x264 [info]: coded y,uvDC,uvAC intra: 86.7% 87.0% 73.7% inter: 24.4% 20.2% 6.3%
x264 [info]: i16 v,h,dc,p: 36% 13% 8% 43%
x264 [info]: i8 v,h,dc,ddl,ddr,vr,hd,vl,hu: 13% 10% 9% 9% 12% 12% 11% 12% 13%
x264 [info]: i4 v,h,dc,ddl,ddr,vr,hd,vl,hu: 11% 9% 4% 9% 15% 14% 13% 12% 13%
x264 [info]: i8c dc,h,v,p: 46% 22% 20% 13%
x264 [info]: Weighted P-Frames: Y:3.5% UV:2.0%
x264 [info]: ref P L0: 49.9% 8.1% 16.1% 6.5% 6.4% 4.3% 3.9% 2.2% 2.5% 0.1% 0.0%
x264 [info]: ref B L0: 73.4% 10.9% 5.6% 3.0% 2.9% 2.4% 1.4% 0.4%
x264 [info]: ref B L1: 95.0% 5.0%
x264 [info]: kb/s:2197.37
Apple TV, iPad, iPhone, iPod Touch.
Windows VLC media player

 ·  , , FAQ-
:  [ 28--2018 14:12 ]

  

.torrent

.torrent 32 KB


: 1.61 GB
(hash) : d9532f0dcc39f39d430837a3b6a7673edc4a9722
··
...

[iPad] My Pet Dinosaur . !

!