The.Flash.2014.S04E13.HDTV.x264-SVA[ettv]
The.Big.Bang.Theory.S11E15.HDTV.x264-SVA[ettv]

My Pet Dinosaur torrent

, , - AdBlock. #!


3.18 GB   |    :  27    |    .torrent :  26    |   
1  
   
...
 

Galfimbul

avatar Galfimbul


/ My Pet Dinosaur
,

4.936 / 10 4.00 / 10
: 2017
:
: , ,
: 01:33:48

: (iTunes)
:
C:
:
:
: , ,
:
:
: , , , , , , , , -, Jack Mars

: $31 337

: 22 2017
(): 28 2017,

: 22 2018,

: . . . , , . , . : BDRemux (NNMClub)
: BDRip
: HD (720p)
: M4V
: H.264, 1280x536, 2.40:1, 3 500 Kbps, 23.976 (24000/1001) fps

1: / (iTunes), AAC / 2.0 / 160 Kbps / 48.0 KHz
2: / , AAC / 2.0 / 160 Kbps / 48.0 KHz
3: / (iTunes), AC-3 / 5.1 / 384 Kbps / 48.0 KHz
4: / , AC-3 / 5.1 / 640 Kbps / 48.0 KHz
Sort Name:
XID: Apple:vendor_id:2017-1008929
contentID: 1330038081
Copyright: 2017 Empress Road Pictures
Screenwriters:
Producers: , ,
Director:
Cast: , , , , , ...
Studio: Hive Studios International
Rating: 133
Long Description: . . . , , . , .
Description: . . .
Release Date: 2017-12-28T08:00:00Z
Genre:
Artist:
Name:
General
Complete name : /Users/imac/HandBrake/My.Pet.Dinosaur.720p.HD.m4v
Format : MPEG-4
Codec ID : M4V (M4V /M4A /mp42/isom)
File size : 3.18 GiB
Duration : 1h 33mn
Overall bit rate mode : Variable
Overall bit rate : 4 850 Kbps
Movie name :
Performer :
Director :
Actor : / / / / / ...
Screenplay by :
Producer : / /
Production studio : Hive Studios International
Genre :
ContentType : Short Film
Description : . . .
Recorded date : UTC 2017-12-28 08:00:00
Encoded date : UTC 2018-01-27 22:25:13
Tagged date : UTC 2018-01-27 22:26:41
Copyright : 2017 Empress Road Pictures
Cover : Yes
Rating : None
Title/Sort :
LongDescription : . . . , , . , .
HDVideo : Yes
AppleStoreCatalogID : 1330038081
Vendor : Apple:vendor_id:2017-1008929
ContentRating : ru-movie|6+|150|

Video #1
ID : 1
Format : AVC
Format/Info : Advanced Video Codec
Format profile : [email protected]
Format settings : 3 Ref Frames
Format settings, CABAC : No
Format settings, ReFrames : 3 frames
Codec ID : avc1
Codec ID/Info : Advanced Video Coding
Duration : 1h 33mn
Source duration : 1h 33mn
Bit rate : 3 500 Kbps
Width : 1 280 pixels
Height : 536 pixels
Display aspect ratio : 2.40:1
Frame rate mode : Variable
Frame rate : 23.976 (24000/1001) fps
Minimum frame rate : 23.974 fps
Maximum frame rate : 23.981 fps
Color space : YUV
Chroma subsampling : 4:2:0
Bit depth : 8 bits
Scan type : Progressive
Bits/(Pixel*Frame) : 0.213
Stream size : 2.29 GiB (72%)
Source stream size : 2.29 GiB (72%)
Title : Main Program
Writing library : x264 core 148 r2708 86b7198
Encoding settings : cabac=0 / ref=3 / deblock=1:-3:-3 / analyse=0x3:0x113 / me=umh / subme=9 / psy=1 / psy_rd=1.00:0.15 / mixed_ref=1 / me_range=32 / chroma_me=1 / trellis=0 / 8x8dct=1 / cqm=0 / deadzone=21,11 / fast_pskip=0 / chroma_qp_offset=-2 / threads=17 / lookahead_threads=1 / sliced_threads=0 / nr=0 / decimate=0 / interlaced=0 / bluray_compat=0 / constrained_intra=0 / bframes=3 / b_pyramid=0 / b_adapt=2 / b_bias=0 / direct=1 / weightb=0 / open_gop=0 / weightp=0 / keyint=240 / keyint_min=24 / scenecut=40 / intra_refresh=0 / rc_lookahead=40 / rc=2pass / mbtree=1 / bitrate=3500 / ratetol=1.0 / qcomp=0.65 / qpmin=0 / qpmax=69 / qpstep=4 / cplxblur=20.0 / qblur=0.5 / vbv_maxrate=9500 / vbv_bufsize=9500 / nal_hrd=none / filler=0 / ip_ratio=1.40 / aq=1:1.10
Language : English
Encoded date : UTC 2018-01-27 22:25:14
Tagged date : UTC 2018-01-27 22:25:20
Color range : Limited
Color primaries : BT.709
Transfer characteristics : BT.709
Matrix coefficients : BT.709
Menus : 6,7

Video #2
ID : 7
Format : JPEG
Codec ID : jpeg
Duration : 1h 33mn
Bit rate mode : Variable
Bit rate : 604 bps
Width : 640 pixels
Height : 268 pixels
Display aspect ratio : 2.40:1
Frame rate mode : Constant
Frame rate : 0.002 fps
Color space : YUV
Chroma subsampling : 4:2:0
Bit depth : 8 bits
Compression mode : Lossy
Bits/(Pixel*Frame) : 1.761
Stream size : 442 KiB (0%)
Title : Chapter Images
Language : English
Default : No
Encoded date : UTC 2018-01-27 22:26:02
Tagged date : UTC 2018-01-27 22:26:02
Menu For : 1

Audio #1
ID : 2
Format : AAC
Format/Info : Advanced Audio Codec
Format profile : LC
Codec ID : mp4a-40-2
Duration : 1h 33mn
Bit rate mode : Variable
Bit rate : 161 Kbps
Maximum bit rate : 231 Kbps
Channel(s) : 2 channels
Channel positions : Front: L R
Sampling rate : 48.0 KHz
Frame rate : 46.875 fps (1024 SPF)
Compression mode : Lossy
Stream size : 108 MiB (3%)
Title : Russian Stereo
Language : Russian
Default : Yes
Alternate group : 1
Encoded date : UTC 2018-01-27 22:25:14
Tagged date : UTC 2018-01-27 22:25:57
Fallback From : 4

Audio #2
ID : 3
Format : AAC
Format/Info : Advanced Audio Codec
Format profile : LC
Codec ID : mp4a-40-2
Duration : 1h 33mn
Source duration : 1h 33mn
Bit rate mode : Variable
Bit rate : 159 Kbps
Maximum bit rate : 253 Kbps
Channel(s) : 2 channels
Channel positions : Front: L R
Sampling rate : 48.0 KHz
Frame rate : 46.875 fps (1024 SPF)
Compression mode : Lossy
Stream size : 107 MiB (3%)
Source stream size : 107 MiB (3%)
Title : English Stereo
Language : English
Default : No
Alternate group : 1
Encoded date : UTC 2018-01-27 22:25:14
Tagged date : UTC 2018-01-27 22:25:57
Fallback From : 5

Audio #3
ID : 4
Format : AC-3
Format/Info : Audio Coding 3
Codec ID : ac-3
Duration : 1h 33mn
Bit rate mode : Constant
Bit rate : 384 Kbps
Channel(s) : 6 channels
Channel positions : Front: L C R, Side: L R, LFE
Sampling rate : 48.0 KHz
Frame rate : 31.250 fps (1536 SPF)
Bit depth : 16 bits
Compression mode : Lossy
Stream size : 258 MiB (8%)
Title : Russian DD 5.1
Language : Russian
Service kind : Complete Main
Default : Inherited From: 2
Alternate group : 1
Encoded date : UTC 2018-01-27 22:25:14
Tagged date : UTC 2018-01-27 22:25:57
Fallback To : 2

Audio #4
ID : 5
Format : AC-3
Format/Info : Audio Coding 3
Codec ID : ac-3
Duration : 1h 33mn
Bit rate mode : Constant
Bit rate : 640 Kbps
Channel(s) : 6 channels
Channel positions : Front: L C R, Side: L R, LFE
Sampling rate : 48.0 KHz
Frame rate : 31.250 fps (1536 SPF)
Bit depth : 16 bits
Compression mode : Lossy
Stream size : 429 MiB (13%)
Title : English DD 5.1
Language : English
Service kind : Complete Main
Default : No
Alternate group : 1
Encoded date : UTC 2018-01-27 22:25:14
Tagged date : UTC 2018-01-27 22:25:57
Fallback To : 3

Menu #1
00:00:00.000 : Chapter 1
00:09:21.436 : Chapter 2
00:17:58.786 : Chapter 3
00:25:10.384 : Chapter 4
00:32:31.950 : Chapter 5
00:40:29.177 : Chapter 6
00:47:27.345 : Chapter 7
00:54:54.082 : Chapter 8
01:02:29.287 : Chapter 9
01:11:36.334 : Chapter 10
01:19:15.251 : Chapter 11
01:26:00.322 : Chapter 12

Menu #2
ID : 6
Codec ID : text
Duration : 1h 33mn
Language : English
Encoded date : UTC 2018-01-27 22:25:57
Tagged date : UTC 2018-01-27 22:25:57
Menu For : 1
00:00:00.000 : Chapter 1
00:09:21.436 : Chapter 2
00:17:58.786 : Chapter 3
00:25:10.384 : Chapter 4
00:32:31.950 : Chapter 5
00:40:29.177 : Chapter 6
00:47:27.345 : Chapter 7
00:54:54.082 : Chapter 8
01:02:29.287 : Chapter 9
01:11:36.334 : Chapter 10
01:19:15.251 : Chapter 11
01:26:00.322 : Chapter 12
Bit rate mode : VBR
x264 [info]: frame I:1454 Avg QP:12.23 size:115649
x264 [info]: frame P:49991 Avg QP:14.91 size: 33158
x264 [info]: frame B:83498 Avg QP:17.35 size: 7605
x264 [info]: consecutive B-frames: 3.6% 29.7% 36.0% 30.6%
x264 [info]: mb I I16..4: 7.6% 57.4% 35.0%
x264 [info]: mb P I16..4: 1.3% 5.4% 2.5% P16..4: 44.1% 27.3% 12.5% 0.0% 0.0% skip: 6.9%
x264 [info]: mb B I16..4: 0.1% 0.6% 0.3% B16..8: 37.0% 11.3% 1.9% direct: 3.8% skip:45.0% L0:38.1% L1:50.9% BI:11.0%
x264 [info]: 8x8 transform intra:58.9% inter:38.6%
x264 [info]: coded y,uvDC,uvAC intra: 85.0% 82.1% 65.0% inter: 25.0% 21.0% 13.4%
x264 [info]: i16 v,h,dc,p: 43% 14% 10% 33%
x264 [info]: i8 v,h,dc,ddl,ddr,vr,hd,vl,hu: 13% 9% 10% 10% 12% 13% 12% 11% 11%
x264 [info]: i4 v,h,dc,ddl,ddr,vr,hd,vl,hu: 13% 10% 4% 10% 15% 14% 13% 11% 9%
x264 [info]: i8c dc,h,v,p: 51% 18% 21% 11%
x264 [info]: ref P L0: 72.0% 16.3% 11.7%
x264 [info]: ref B L0: 81.8% 18.2%
x264 [info]: kb/s:3497.76
Apple TV, iPad, iPhone, iPod Touch.
Windows VLC media player

 ·  , , FAQ-
:  [ 28--2018 01:42 ]

  

.torrent

.torrent 32 KB


: 3.18 GB
(hash) : 857750667ef1318e69488613d8fa1540568aaf9b
··
...

My Pet Dinosaur . !

!