cheap messi16 pureagility joins the blue blast
nike air jordan vi 6 retro womens nike air jordan vi 6

[ATV3] My Pet Dinosaur torrent

, , - AdBlock. #!


6.12 GB   |    :  27    |    .torrent :  28    |   
1  
   
...
 

Galfimbul

avatar Galfimbul


/ My Pet Dinosaur
,

4.936 / 10 4.00 / 10
: 2017
:
: , ,
: 01:33:48

: (iTunes)
:
C:
:
:
: , ,
:
:
: , , , , , , , , -, Jack Mars

: $31 337

: 22 2017
(): 28 2017,

: 22 2018,

: . . . , , . , . : BDRemux (NNMClub)
: BDRip
: HD (1080p)
: M4V
: H.264, 1920x800, 2.40:1, 8 000 Kbps, 23.976 (24000/1001) fps

1: / (iTunes), AAC / 2.0 / 160 Kbps / 48.0 KHz
2: / , AAC / 2.0 / 160 Kbps / 48.0 KHz
3: / (iTunes), AC-3 / 5.1 / 384 Kbps / 48.0 KHz
4: / , AC-3 / 5.1 / 640 Kbps / 48.0 KHz
Sort Name:
XID: Apple:vendor_id:2017-1008929
contentID: 1330038081
Copyright: 2017 Empress Road Pictures
Screenwriters:
Producers: , ,
Director:
Cast: , , , , , ...
Studio: Hive Studios International
Rating: 133
Long Description: . . . , , . , .
Description: . . .
Release Date: 2017-12-28T08:00:00Z
Genre:
Artist:
Name:
General
Complete name : /Users/imac/HandBrake/My.Pet.Dinosaur.1080p.HD.m4v
Format : MPEG-4
Codec ID : M4V (M4V /M4A /mp42/isom)
File size : 6.12 GiB
Duration : 1h 33mn
Overall bit rate mode : Variable
Overall bit rate : 9 339 Kbps
Movie name :
Performer :
Director :
Actor : / / / / / ...
Screenplay by :
Producer : / /
Production studio : Hive Studios International
Genre :
ContentType : Short Film
Description : . . .
Recorded date : UTC 2017-12-28 08:00:00
Encoded date : UTC 2018-01-27 21:30:25
Tagged date : UTC 2018-01-27 21:35:14
Copyright : 2017 Empress Road Pictures
Cover : Yes
Rating : None
Title/Sort :
LongDescription : . . . , , . , .
AppleStoreCatalogID : 1330038081
Vendor : Apple:vendor_id:2017-1008929
ContentRating : ru-movie|6+|150|

Video #1
ID : 1
Format : AVC
Format/Info : Advanced Video Codec
Format profile : [email protected]
Format settings : CABAC / 4 Ref Frames
Format settings, CABAC : Yes
Format settings, ReFrames : 4 frames
Codec ID : avc1
Codec ID/Info : Advanced Video Coding
Duration : 1h 33mn
Source duration : 1h 33mn
Bit rate : 8 000 Kbps
Width : 1 920 pixels
Height : 800 pixels
Display aspect ratio : 2.40:1
Frame rate mode : Variable
Frame rate : 23.976 (24000/1001) fps
Minimum frame rate : 23.974 fps
Maximum frame rate : 23.981 fps
Color space : YUV
Chroma subsampling : 4:2:0
Bit depth : 8 bits
Scan type : Progressive
Bits/(Pixel*Frame) : 0.217
Stream size : 5.23 GiB (86%)
Source stream size : 5.23 GiB (86%)
Title : Main Program
Writing library : x264 core 148 r2708 86b7198
Encoding settings : cabac=1 / ref=4 / deblock=1:-2:-2 / analyse=0x3:0x133 / me=umh / subme=10 / psy=1 / psy_rd=1.00:0.15 / mixed_ref=1 / me_range=32 / chroma_me=1 / trellis=2 / 8x8dct=1 / cqm=0 / deadzone=21,11 / fast_pskip=1 / chroma_qp_offset=-3 / threads=25 / lookahead_threads=6 / sliced_threads=0 / nr=0 / decimate=0 / interlaced=0 / bluray_compat=0 / constrained_intra=0 / bframes=16 / b_pyramid=2 / b_adapt=2 / b_bias=0 / direct=3 / weightb=1 / open_gop=0 / weightp=2 / keyint=240 / keyint_min=24 / scenecut=40 / intra_refresh=0 / rc_lookahead=40 / rc=2pass / mbtree=1 / bitrate=8000 / ratetol=1.0 / qcomp=0.70 / qpmin=0 / qpmax=69 / qpstep=4 / cplxblur=20.0 / qblur=0.5 / ip_ratio=1.40 / aq=1:1.00
Language : English
Encoded date : UTC 2018-01-27 21:30:25
Tagged date : UTC 2018-01-27 21:30:52
Color range : Limited
Color primaries : BT.709
Transfer characteristics : BT.709
Matrix coefficients : BT.709
Menus : 6,7

Video #2
ID : 7
Format : JPEG
Codec ID : jpeg
Duration : 1h 33mn
Bit rate mode : Variable
Bit rate : 597 bps
Width : 640 pixels
Height : 266 pixels
Display aspect ratio : 2.40:1
Frame rate mode : Constant
Frame rate : 0.002 fps
Color space : YUV
Chroma subsampling : 4:2:0
Bit depth : 8 bits
Compression mode : Lossy
Bits/(Pixel*Frame) : 1.753
Stream size : 437 KiB (0%)
Title : Chapter Images
Language : English
Default : No
Encoded date : UTC 2018-01-27 21:30:58
Tagged date : UTC 2018-01-27 21:30:58
Menu For : 1

Audio #1
ID : 2
Format : AAC
Format/Info : Advanced Audio Codec
Format profile : LC
Codec ID : mp4a-40-2
Duration : 1h 33mn
Source duration : 1h 33mn
Bit rate mode : Variable
Bit rate : 161 Kbps
Maximum bit rate : 231 Kbps
Channel(s) : 2 channels
Channel positions : Front: L R
Sampling rate : 48.0 KHz
Frame rate : 46.875 fps (1024 SPF)
Compression mode : Lossy
Stream size : 108 MiB (2%)
Source stream size : 108 MiB (2%)
Title : Russian Stereo
Language : Russian
Default : Yes
Alternate group : 1
Encoded date : UTC 2018-01-27 21:30:25
Tagged date : UTC 2018-01-27 21:30:52
Fallback From : 4

Audio #2
ID : 3
Format : AAC
Format/Info : Advanced Audio Codec
Format profile : LC
Codec ID : mp4a-40-2
Duration : 1h 33mn
Source duration : 1h 33mn
Bit rate mode : Variable
Bit rate : 159 Kbps
Maximum bit rate : 253 Kbps
Channel(s) : 2 channels
Channel positions : Front: L R
Sampling rate : 48.0 KHz
Frame rate : 46.875 fps (1024 SPF)
Compression mode : Lossy
Stream size : 107 MiB (2%)
Source stream size : 107 MiB (2%)
Title : English Stereo
Language : English
Default : No
Alternate group : 1
Encoded date : UTC 2018-01-27 21:30:25
Tagged date : UTC 2018-01-27 21:30:52
Fallback From : 5

Audio #3
ID : 4
Format : AC-3
Format/Info : Audio Coding 3
Codec ID : ac-3
Duration : 1h 33mn
Bit rate mode : Constant
Bit rate : 384 Kbps
Channel(s) : 6 channels
Channel positions : Front: L C R, Side: L R, LFE
Sampling rate : 48.0 KHz
Frame rate : 31.250 fps (1536 SPF)
Bit depth : 16 bits
Compression mode : Lossy
Stream size : 258 MiB (4%)
Title : Russian DD 5.1
Language : Russian
Service kind : Complete Main
Default : Inherited From: 2
Alternate group : 1
Encoded date : UTC 2018-01-27 21:30:25
Tagged date : UTC 2018-01-27 21:30:52
Fallback To : 2

Audio #4
ID : 5
Format : AC-3
Format/Info : Audio Coding 3
Codec ID : ac-3
Duration : 1h 33mn
Bit rate mode : Constant
Bit rate : 640 Kbps
Channel(s) : 6 channels
Channel positions : Front: L C R, Side: L R, LFE
Sampling rate : 48.0 KHz
Frame rate : 31.250 fps (1536 SPF)
Bit depth : 16 bits
Compression mode : Lossy
Stream size : 429 MiB (7%)
Title : English DD 5.1
Language : English
Service kind : Complete Main
Default : No
Alternate group : 1
Encoded date : UTC 2018-01-27 21:30:25
Tagged date : UTC 2018-01-27 21:30:52
Fallback To : 3

Menu #1
00:00:00.000 : Chapter 1
00:09:21.436 : Chapter 2
00:17:58.786 : Chapter 3
00:25:10.384 : Chapter 4
00:32:31.950 : Chapter 5
00:40:29.177 : Chapter 6
00:47:27.345 : Chapter 7
00:54:54.082 : Chapter 8
01:02:29.287 : Chapter 9
01:11:36.334 : Chapter 10
01:19:15.251 : Chapter 11
01:26:00.322 : Chapter 12

Menu #2
ID : 6
Codec ID : text
Duration : 1h 33mn
Language : English
Encoded date : UTC 2018-01-27 21:30:52
Tagged date : UTC 2018-01-27 21:30:52
Menu For : 1
00:00:00.000 : Chapter 1
00:09:21.436 : Chapter 2
00:17:58.786 : Chapter 3
00:25:10.384 : Chapter 4
00:32:31.950 : Chapter 5
00:40:29.177 : Chapter 6
00:47:27.345 : Chapter 7
00:54:54.082 : Chapter 8
01:02:29.287 : Chapter 9
01:11:36.334 : Chapter 10
01:19:15.251 : Chapter 11
01:26:00.322 : Chapter 12
Bit rate mode : VBR
x264 [info]: frame I:1095 Avg QP:12.00 size:264088
x264 [info]: frame P:28058 Avg QP:15.29 size: 82694
x264 [info]: frame B:105790 Avg QP:16.71 size: 28446
x264 [info]: consecutive B-frames: 2.4% 3.1% 9.2% 13.2% 11.2% 30.5% 13.7% 14.6% 1.6% 0.1% 0.0% 0.0% 0.0% 0.0% 0.0% 0.0% 0.2%
x264 [info]: mb I I16..4: 21.3% 51.1% 27.7%
x264 [info]: mb P I16..4: 1.9% 17.0% 2.4% P16..4: 32.8% 21.3% 15.1% 1.1% 0.6% skip: 7.8%
x264 [info]: mb B I16..4: 0.2% 2.3% 0.3% B16..8: 30.9% 12.4% 3.6% direct: 9.3% skip:40.9% L0:40.7% L1:39.7% BI:19.6%
x264 [info]: 8x8 transform intra:77.5% inter:36.2%
x264 [info]: direct mvs spatial:98.2% temporal:1.8%
x264 [info]: coded y,uvDC,uvAC intra: 94.0% 80.4% 62.3% inter: 30.1% 23.0% 10.0%
x264 [info]: i16 v,h,dc,p: 12% 8% 33% 48%
x264 [info]: i8 v,h,dc,ddl,ddr,vr,hd,vl,hu: 12% 11% 15% 8% 10% 10% 11% 11% 12%
x264 [info]: i4 v,h,dc,ddl,ddr,vr,hd,vl,hu: 11% 12% 5% 9% 14% 13% 13% 10% 13%
x264 [info]: i8c dc,h,v,p: 46% 23% 20% 12%
x264 [info]: Weighted P-Frames: Y:2.9% UV:1.7%
x264 [info]: ref P L0: 54.7% 8.1% 25.9% 10.8% 0.5% 0.0%
x264 [info]: ref B L0: 83.6% 13.2% 3.2%
x264 [info]: ref B L1: 95.2% 4.8%
x264 [info]: kb/s:7986.50
Apple TV, iPad, iPhone, iPod Touch.
Windows VLC media player

 ·  , , FAQ-
:  [ 28--2018 01:12 ]

  

.torrent

.torrent 61 KB


: 6.12 GB
(hash) : 8f4756cfbfd6718c9e82f21057ef8c825d41e924
··
...

[ATV3] My Pet Dinosaur . !

!