view all | Hallie York | Animation

Скачать через торрент [VIDEO] Район №9 District 9 бесплатно русская версия torrent активатор

Статистика раздачи
Размер:  1.76 GB   |    Зарегистрирован:  6 месяцев   |    .torrent скачан:  24 раза   |   
Раздают:  1  
   
загрузка...
 
Автор Сообщение

Galfimbul

avatar Galfimbul


Район №9 / District 9

Год выпуска: 2009

Страна: ЮАР, США
Жанр: Фантастика, Триллер, Боевик, Драма
Продолжительность: 01:52:15
Перевод: Профессиональный (дублированный)
Субтитры: Русские (форсированные, полные), Английские (полные)
Оригинальная аудиодорожка: нет

Режиссер: Нил Бломкамп / Neill Blomkamp
В ролях: Шарлто Копли, Джейсон Коуп, Натали Болтт, Сильвен Страйк, Элизабет Мкандави, Джон Самнер, Уильям Аллен Янг, Грег Мелвилл-Смит, Ник Блейк, Морена Буса Сесатса
Описание: Более 20 лет назад инопланетяне установили первый контакт с Землей. Люди были готовы ко всему — от враждебного вторжения до невероятного технологического прорыва. Ни того, ни другого не произошло. Пришельцы оказались беженцами со своей собственной планеты, и пока мировое сообщество решало, что с ними делать дальше, для них был организован временный лагерь в южноафриканском Районе N9.
Исходник (ссылка): ...2777169
Качество: HDRip
Формат: MP4
Видео: AVC/H.264, 1280x692 (1,85:1), ~2104 Kbps, 23.976 fps
Аудио: Русский, AAC, 2 ch, 48,0 KHz, ~132 Kbps
ОбщееПолное имя : F:\!Download\complete\Район №9 2009 720p.mp4Формат : MPEG-4Профиль формата : Base MediaИдентификатор кодека : isom (isom/avc1)Размер файла : 1,76 ГбайтПродолжительность : 1 ч. 52 м.Режим общего битрейта : ПеременныйОбщий поток : 2239 Кбит/секДата кодирования : UTC 2018-01-23 10:25:20Дата пометки : UTC 2018-01-23 10:25:20

ВидеоИдентификатор : 1Формат : AVCФормат/Информация : Advanced Video CodecПрофиль формата : [email protected]Настройки формата : CABAC / 1 Ref FramesПараметр CABAC формата : ДаПараметр RefFrames формата : 1 кадрПараметр GOP формата : M=1, N=60Идентификатор кодека : avc1Идентификатор кодека/Информация : Advanced Video CodingПродолжительность : 1 ч. 52 м.Битрейт : 2104 Кбит/секМаксимальный битрейт : 7547 Кбит/секШирина : 1280 пикселейВысота : 692 пикселяСоотношение сторон : 1,85:1Режим частоты кадров : ПостоянныйЧастота кадров : 23,976 (24000/1001) кадра/секЦветовое пространство : YUVСубдискретизация насыщенности : 4:2:0Битовая глубина : 8 битТип развёртки : ПрогрессивнаяБит/(Пиксели*Кадры) : 0.099Размер потока : 1,65 Гбайт (94%)Дата кодирования : UTC 2018-01-23 10:25:20Дата пометки : UTC 2018-01-23 10:27:28Цветовой диапазон : LimitedОсновные цвета : BT.709Характеристики трансфера : BT.709Коэффициенты матрицы : BT.709

АудиоИдентификатор : 2Формат : AACФормат/Информация : Advanced Audio CodecПрофиль формата : LCИдентификатор кодека : mp4a-40-2Продолжительность : 1 ч. 52 м.Вид битрейта : ПеременныйБитрейт : 132 Кбит/секМаксимальный битрейт : 159 Кбит/секКаналы : 2 каналаРасположение каналов : Front: L RЧастота : 48,0 КГцЧастота кадров : 46,875 кадров/сек (1024 SPF)Метод сжатия : С потерямиРазмер потока : 105 Мбайт (6%)Заголовок : Дублированный (Лицензия)Язык : RussianДата кодирования : UTC 2018-01-23 10:27:15Дата пометки : UTC 2018-01-23 10:27:28

Текст #1Идентификатор : 3Формат : Timed TextИдентификатор кодека : tx3gПродолжительность : 1 ч. 43 м.Вид битрейта : ПеременныйБитрейт : 18 бит/секРазмер потока : 14,0 Кбайт (0%)Заголовок : ForcedЯзык : RussianForced : НетДата кодирования : UTC 2018-01-23 10:27:28Дата пометки : UTC 2018-01-23 10:27:28

Текст #2Идентификатор : 4Формат : Timed TextИдентификатор кодека : tx3gПродолжительность : 1 ч. 44 м.Вид битрейта : ПеременныйБитрейт : 97 бит/секРазмер потока : 74,4 Кбайт (0%)Заголовок : FullЯзык : RussianForced : НетДата кодирования : UTC 2018-01-23 10:27:28Дата пометки : UTC 2018-01-23 10:27:28

Текст #3Идентификатор : 5Формат : Timed TextИдентификатор кодека : tx3gПродолжительность : 1 ч. 44 м.Вид битрейта : ПеременныйБитрейт : 83 бит/секРазмер потока : 63,6 Кбайт (0%)Заголовок : FullЯзык : EnglishForced : НетДата кодирования : UTC 2018-01-23 10:27:28Дата пометки : UTC 2018-01-23 10:27:28


Трекер:  [ 27-Янв-2018 10:42 ]

  

Скачать .torrent

Размер .torrent файла 2 KB


Размер: 1.76 GB
Хэш (hash) релиза: 875d8c6993e77fffca594ddbb3cd7b20b17bd7e0

Еще никто не оставлял запись к записи скачать торрент [VIDEO] Район №9 District 9 . Будь первым!

!Обратная связь