Stolz und Vorurteil | Search Torrents | Tweet #FreeArtemVaulin #KAT

Скачать через торрент [iPad] Чудо-Юдо бесплатно русская версия torrent активатор

Статистика раздачи
Размер:  1.22 GB   |    Зарегистрирован:  4 месяца 26 дней   |    .torrent скачан:  50 раз   |   
Раздают:  1  
   
загрузка...
 
Автор Сообщение

Galfimbul

avatar Galfimbul


Чудо-Юдо
-

4.841 / 10 / 10
Год выпуска: 2017
Страна: Россия
Жанр: Мультфильм, фэнтези
Продолжительность: 01:14:55

Перевод: (Не требуется)
Оригинальная аудиодорожка: Есть
Cубтитры: Нет
Режиссёр: Артем Лукичев
Сценарий: Василий Ровенский
Продюсер: Роман Борисевич, Василий Ровенский
Композитор: Константин Шустарев
В ролях: Антон Макарский, Ирина Медведева, Наталия Медведева, Александр Пожаров, Людмила Артемьева, Федор Добронравов, Иван Добронравов, Диомид Виноградов

Сборы в России: $937 463

Мировая премьера:
Премьера (РФ): 1 января 2018, «Каропрокат»

Описание: В некотором царстве, в некотором государстве жил-был Царь Еремей с тремя сыновьями. Был он занят целыми днями важнейшим государственным делом — диктовал мемуары о своих несуществующих подвигах. И вот однажды, средь бела дня обнаружилось на границе Царства чудище драконьей породы, а проще говоря, Чудо-Юдо. И послал Царь сыновей чудище это победить и славу царского рода приумножить. Но пока старшие сыновья спали, а Иван с Чудом-Юдом сражался, выяснилось, что пропала Царевна Варвара из Соседнего Царства. И отправился Иван на её поиски. Ну и Чудо-Юдо с собой прихватил. На всякий случай. Вдруг в дороге пригодится! Не знал только Иван, что Дракон этот — совсем не тот, за кого себя выдаёт.Качество исходника: WEB-DL 1080p (BlueBird)
Качество: WEB-DLRip
Тип: SD (576p)
Контейнер: M4V
Видео: H.264, 1024x560, 1.85:1, 2 200 Kbps, 23.976 fps

Аудио: Русский/Оригинальная дорожка , AAC / 2.0 / 128 Kbps / 48.0 KHz
Sort Name: Чудо-Юдо
XID: Apple:vendor_id:2017-905039
contentID: 1335792334
Copyright: © 2018 Каропрокат
Screenwriters: Василий Ровенский
Producers: Роман Борисевич, Василий Ровенский
Director: Артем Лукичев
Cast: Антон Макарский, Ирина Медведева, Наталия Медведева, Александр Пожаров, Людмила Артемьева, Федор Добронравов, Иван Добронравов, Диомид Виноградов
Studio: Кинофирма
Rating: 133
Long Description: В некотором царстве, в некотором государстве жил-был Царь Еремей с тремя сыновьями. Был он занят целыми днями важнейшим государственным делом - диктовал мемуары о своих несуществующих подвигах. И вот однажды, средь бела дня обнаружилось на границе Царства чудище драконьей породы, а проще говоря, Чудо-Юдо. И послал Царь сыновей чудище это победить и славу царского рода приумножить. Но пока старшие сыновья спали, а Иван с Чудом-Юдом сражался, выяснилось, что пропала Царевна Варвара из Соседнего Царства. И отправился Иван на её поиски. Ну и Чудо-Юдо с собой прихватил. На всякий случай. Вдруг в дороге пригодится! Не знал только Иван, что Дракон этот - совсем не тот, за кого себя выдаёт.
Description: В некотором царстве, в некотором государстве жил-был Царь Еремей с тремя сыновьями. Был он занят целыми днями важнейшим государственным делом - диктовал мемуары о своих несуществующих подвигах. И вот однажды, средь бела дня обнаружилось на границе Царства чудище драконьей породы, а проще говоря, Чудо-Юдо...
Release Date: 2018-01-01T08:00:00Z
Genre: Kids & Family
Artist: Артем Лукичев
Name: Чудо-Юдо
General
Complete name : /Users/imac/HandBrake/Chudo.Judo.(SD).(pk).m4v
Format : MPEG-4
Codec ID : M4V
File size : 1.22 GiB
Duration : 1h 14mn
Overall bit rate mode : Variable
Overall bit rate : 2 336 Kbps
Movie name : Чудо-Юдо
Performer : Артем Лукичев
Director : Артем Лукичев
Actor : Антон Макарский / Ирина Медведева / Наталия Медведева / Александр Пожаров / Людмила Артемьева / Федор Добронравов / Иван Добронравов / Диомид Виноградов
Screenplay by : Василий Ровенский
Producer : Роман Борисевич / Василий Ровенский
Production studio : Кинофирма
Genre : Kids & Family
ContentType : Short Film
Description : В некотором царстве, в некотором государстве жил-был Царь Еремей с тремя сыновьями. Был он занят целыми днями важнейшим государственным делом - диктовал мемуары о своих несуществующих подвигах. И вот однажды, средь бела дня обнаружилось на границе Царства чудище драконьей породы, а проще говоря, Чудо-Юдо...
Recorded date : UTC 2018-01-01 08:00:00
Encoded date : UTC 2018-01-26 22:13:38
Tagged date : UTC 2018-01-26 22:14:29
Copyright : © 2018 Каропрокат
Cover : Yes
Rating : None
Title/Sort : Чудо-Юдо
LongDescription : В некотором царстве, в некотором государстве жил-был Царь Еремей с тремя сыновьями. Был он занят целыми днями важнейшим государственным делом - диктовал мемуары о своих несуществующих подвигах. И вот однажды, средь бела дня обнаружилось на границе Царства чудище драконьей породы, а проще говоря, Чудо-Юдо. И послал Царь сыновей чудище это победить и славу царского рода приумножить. Но пока старшие сыновья спали, а Иван с Чудом-Юдом сражался, выяснилось, что пропала Царевна Варвара из Соседнего Царства. И отправился Иван на её поиски. Ну и Чудо-Юдо с собой прихватил. На всякий случай. Вдруг в дороге пригодится! Не знал только Иван, что Дракон этот - совсем не тот, за кого себя выдаёт.
AppleStoreCatalogID : 1335792334
Vendor : Apple:vendor_id:2017-905039
ContentRating : ru-movie|6+|150|

Video #1
ID : 1
Format : AVC
Format/Info : Advanced Video Codec
Format profile : [email protected]
Format settings, CABAC : Yes
Format settings, ReFrames : 9 frames
Codec ID : avc1
Codec ID/Info : Advanced Video Coding
Duration : 1h 14mn
Source duration : 1h 14mn
Bit rate : 2 200 Kbps
Width : 1 024 pixels
Height : 560 pixels
Display aspect ratio : 1.85:1
Frame rate mode : Variable
Frame rate : 23.976 fps
Minimum frame rate : 23.974 fps
Maximum frame rate : 23.981 fps
Color space : YUV
Chroma subsampling : 4:2:0
Bit depth : 8 bits
Scan type : Progressive
Bits/(Pixel*Frame) : 0.160
Stream size : 1.15 GiB (94%)
Source stream size : 1.15 GiB (94%)
Title : Main Program
Writing library : x264 core 148 r2708 86b7198
Encoding settings : cabac=1 / ref=9 / deblock=1:0:0 / analyse=0x3:0x113 / me=umh / subme=9 / psy=1 / psy_rd=1.00:0.00 / mixed_ref=1 / me_range=32 / chroma_me=1 / trellis=1 / 8x8dct=1 / cqm=0 / deadzone=21,11 / fast_pskip=1 / chroma_qp_offset=-2 / threads=17 / lookahead_threads=1 / sliced_threads=0 / nr=0 / decimate=1 / interlaced=0 / bluray_compat=0 / constrained_intra=0 / bframes=6 / b_pyramid=2 / b_adapt=2 / b_bias=0 / direct=1 / weightb=1 / open_gop=0 / weightp=2 / keyint=240 / keyint_min=24 / scenecut=40 / intra_refresh=0 / rc_lookahead=40 / rc=2pass / mbtree=1 / bitrate=2200 / ratetol=1.0 / qcomp=0.60 / qpmin=0 / qpmax=69 / qpstep=4 / cplxblur=20.0 / qblur=0.5 / ip_ratio=1.40 / aq=1:1.00
Language : Russian
Encoded date : UTC 2018-01-26 22:13:38
Tagged date : UTC 2018-01-26 22:13:41
Color range : Limited
Color primaries : BT.709
Transfer characteristics : BT.709
Matrix coefficients : BT.709

Video #2
ID : 4
Format : JPEG
Codec ID : jpeg
Duration : 1h 14mn
Bit rate mode : Variable
Bit rate : 823 bps
Width : 640 pixels
Height : 350 pixels
Display aspect ratio : 1.85:1
Frame rate mode : Variable
Frame rate : 0.002 fps
Minimum frame rate : 0.001 fps
Maximum frame rate : 0.003 fps
Color space : YUV
Chroma subsampling : 4:2:0
Bit depth : 8 bits
Compression mode : Lossy
Bits/(Pixel*Frame) : 1.837
Stream size : 502 KiB (0%)
Title : Chapter Images
Language : Russian
Encoded date : UTC 2018-01-26 22:13:45
Tagged date : UTC 2018-01-26 22:13:45

Audio
ID : 2
Format : AAC
Format/Info : Advanced Audio Codec
Format profile : LC
Codec ID : 40
Duration : 1h 14mn
Source duration : 1h 14mn
Bit rate mode : Variable
Bit rate : 127 Kbps
Maximum bit rate : 178 Kbps
Channel(s) : 2 channels
Channel positions : Front: L R
Sampling rate : 48.0 KHz
Compression mode : Lossy
Stream size : 68.2 MiB (5%)
Source stream size : 68.2 MiB (5%)
Title : Russian Stereo
Language : Russian
Encoded date : UTC 2018-01-26 22:13:38
Tagged date : UTC 2018-01-26 22:13:42

Menu #1
00:00:00.000 : 1
00:05:37.207 : 2
00:12:26.583 : 3
00:19:25.916 : 4
00:27:07.041 : 5
00:34:03.624 : 6
00:42:04.499 : 7
00:48:31.832 : 8
00:54:11.332 : 9
01:01:35.957 : 10

Menu #2
ID : 3
Codec ID : text
Duration : 1h 14mn
Language : Russian
Encoded date : UTC 2018-01-26 22:13:42
Tagged date : UTC 2018-01-26 22:13:42
00:00:00.000 : 1
00:05:37.207 : 2
00:12:26.583 : 3
00:19:25.916 : 4
00:27:07.041 : 5
00:34:03.624 : 6
00:42:04.499 : 7
00:48:31.832 : 8
00:54:11.332 : 9
01:01:35.957 : 10
Bit rate mode : VBR
x264 [info]: frame I:1344  Avg QP:10.64  size:130552
x264 [info]: frame P:30287 Avg QP:13.69  size: 23281
x264 [info]: frame B:76143 Avg QP:16.39  size:  4670
x264 [info]: consecutive B-frames:  3.4%  7.4%  4.5% 78.4%  3.7%  2.2%  0.5%
x264 [info]: mb I  I16..4:  7.5% 55.1% 37.3%
x264 [info]: mb P  I16..4:  1.1%  4.0%  2.3%  P16..4: 32.3% 19.3% 15.6%  0.0%  0.0%    skip:25.5%
x264 [info]: mb B  I16..4:  0.1%  0.3%  0.2%  B16..8: 24.8%  5.8%  2.2%  direct: 2.8%  skip:63.7%  L0:46.9% L1:44.7% BI: 8.5%
x264 [info]: 8x8 transform intra:54.0% inter:65.1%
x264 [info]: coded y,uvDC,uvAC intra: 80.7% 94.3% 87.4% inter: 14.7% 19.9% 8.1%
x264 [info]: i16 v,h,dc,p: 28% 19%  9% 44%
x264 [info]: i8 v,h,dc,ddl,ddr,vr,hd,vl,hu: 11% 15% 12%  8% 10% 10% 11% 10% 14%
x264 [info]: i4 v,h,dc,ddl,ddr,vr,hd,vl,hu: 11% 11%  7% 10% 13% 12% 12% 11% 14%
x264 [info]: i8c dc,h,v,p: 45% 24% 17% 14%
x264 [info]: Weighted P-Frames: Y:2.4% UV:1.8%
x264 [info]: ref P L0: 57.2%  5.8% 15.2%  6.3%  4.5%  4.1%  3.0%  1.9%  1.8%  0.1%  0.0%
x264 [info]: ref B L0: 75.4% 10.8%  5.5%  2.6%  2.0%  2.0%  1.1%  0.6%
x264 [info]: ref B L1: 94.8%  5.2%
x264 [info]: kb/s:2200.05
Релиз подготовлен для просмотра на Apple TV, iPad, iPhone, iPod Touch.
Для просмотра данного релиза на компьютере с ОС Windows рекомендуется использовать VLC media player

Трекер:  [ 27-Янв-2018 01:42 ]

  

Скачать .torrent

Размер .torrent файла 25 KB


Размер: 1.22 GB
Хэш (hash) релиза: 16bab3a579726a5fc1f7720cfa027a63df8ebe74

Еще никто не оставлял запись к записи скачать торрент [iPad] Чудо-Юдо . Будь первым!

!Обратная связь