Vincent Ebrahim
Xavier De Guillebon

Скачать через торрент [ATV3] Чудо-Юдо бесплатно русская версия torrent активатор

Если у вас наблюдаются проблемы со скриншотами, переходом по ссылками, скачиванием торрентов - проблемы в блокировщике рекламы AdBlock. #хорошегоДня!


Статистика раздачи
Размер:  2.95 GB   |    Зарегистрирован:  29 дней   |    .torrent скачан:  19 раз   |   
Раздают:  1  
   
Загрузка...
 
Автор Сообщение

Galfimbul

avatar Galfimbul


Чудо-Юдо
-

4.841 / 10 / 10
Год выпуска: 2017
Страна: Россия
Жанр: Мультфильм, фэнтези
Продолжительность: 01:14:55

Перевод: (Не требуется)
Оригинальная аудиодорожка: Есть
Cубтитры: Нет
Режиссёр: Артем Лукичев
Сценарий: Василий Ровенский
Продюсер: Роман Борисевич, Василий Ровенский
Композитор: Константин Шустарев
В ролях: Антон Макарский, Ирина Медведева, Наталия Медведева, Александр Пожаров, Людмила Артемьева, Федор Добронравов, Иван Добронравов, Диомид Виноградов

Сборы в России: $937 463

Мировая премьера:
Премьера (РФ): 1 января 2018, «Каропрокат»

Описание: В некотором царстве, в некотором государстве жил-был Царь Еремей с тремя сыновьями. Был он занят целыми днями важнейшим государственным делом — диктовал мемуары о своих несуществующих подвигах. И вот однажды, средь бела дня обнаружилось на границе Царства чудище драконьей породы, а проще говоря, Чудо-Юдо. И послал Царь сыновей чудище это победить и славу царского рода приумножить. Но пока старшие сыновья спали, а Иван с Чудом-Юдом сражался, выяснилось, что пропала Царевна Варвара из Соседнего Царства. И отправился Иван на её поиски. Ну и Чудо-Юдо с собой прихватил. На всякий случай. Вдруг в дороге пригодится! Не знал только Иван, что Дракон этот — совсем не тот, за кого себя выдаёт.Качество исходника: WEB-DL 1080p (BlueBird)
Качество: WEB-DL
Тип: HD (1080p)
Контейнер: M4V
Видео: H.264, 1920x1038, 1.85:1, 5 080 Kbps, 24.000 fps

Аудио 1: Русский/Оригинальная дорожка , AAC / 2.0 / 160 Kbps / 48.0 KHz
Аудио 2: Русский/Оригинальная дорожка , AC-3 / 5.1 / 384 Kbps / 48.0 KHz
Sort Name: Чудо-Юдо
XID: Apple:vendor_id:2017-905039
contentID: 1335792334
Copyright: © 2018 Каропрокат
Screenwriters: Василий Ровенский
Producers: Роман Борисевич, Василий Ровенский
Director: Артем Лукичев
Cast: Антон Макарский, Ирина Медведева, Наталия Медведева, Александр Пожаров, Людмила Артемьева, Федор Добронравов, Иван Добронравов, Диомид Виноградов
Studio: Кинофирма
Rating: 133
Long Description: В некотором царстве, в некотором государстве жил-был Царь Еремей с тремя сыновьями. Был он занят целыми днями важнейшим государственным делом - диктовал мемуары о своих несуществующих подвигах. И вот однажды, средь бела дня обнаружилось на границе Царства чудище драконьей породы, а проще говоря, Чудо-Юдо. И послал Царь сыновей чудище это победить и славу царского рода приумножить. Но пока старшие сыновья спали, а Иван с Чудом-Юдом сражался, выяснилось, что пропала Царевна Варвара из Соседнего Царства. И отправился Иван на её поиски. Ну и Чудо-Юдо с собой прихватил. На всякий случай. Вдруг в дороге пригодится! Не знал только Иван, что Дракон этот - совсем не тот, за кого себя выдаёт.
Description: В некотором царстве, в некотором государстве жил-был Царь Еремей с тремя сыновьями. Был он занят целыми днями важнейшим государственным делом - диктовал мемуары о своих несуществующих подвигах. И вот однажды, средь бела дня обнаружилось на границе Царства чудище драконьей породы, а проще говоря, Чудо-Юдо...
Release Date: 2018-01-01T08:00:00Z
Genre: Kids & Family
Artist: Артем Лукичев
Name: Чудо-Юдо
General
Complete name : /Users/imac/HandBrake/Chudo-Judo.1080p.WEB-DL.m4v
Format : MPEG-4
Codec ID : M4V
File size : 2.95 GiB
Duration : 1h 14mn
Overall bit rate mode : Variable
Overall bit rate : 5 634 Kbps
Movie name : Чудо-Юдо
Performer : Артем Лукичев
Director : Артем Лукичев
Actor : Антон Макарский / Ирина Медведева / Наталия Медведева / Александр Пожаров / Людмила Артемьева / Федор Добронравов / Иван Добронравов / Диомид Виноградов
Screenplay by : Василий Ровенский
Producer : Роман Борисевич / Василий Ровенский
Production studio : Кинофирма
Genre : Kids & Family
ContentType : Short Film
Description : В некотором царстве, в некотором государстве жил-был Царь Еремей с тремя сыновьями. Был он занят целыми днями важнейшим государственным делом - диктовал мемуары о своих несуществующих подвигах. И вот однажды, средь бела дня обнаружилось на границе Царства чудище драконьей породы, а проще говоря, Чудо-Юдо...
Recorded date : UTC 2018-01-01 08:00:00
Encoded date : UTC 2018-01-26 09:36:23
Tagged date : UTC 2018-01-26 09:42:25
Copyright : © 2018 Каропрокат
Cover : Yes
Rating : None
Title/Sort : Чудо-Юдо
LongDescription : В некотором царстве, в некотором государстве жил-был Царь Еремей с тремя сыновьями. Был он занят целыми днями важнейшим государственным делом - диктовал мемуары о своих несуществующих подвигах. И вот однажды, средь бела дня обнаружилось на границе Царства чудище драконьей породы, а проще говоря, Чудо-Юдо. И послал Царь сыновей чудище это победить и славу царского рода приумножить. Но пока старшие сыновья спали, а Иван с Чудом-Юдом сражался, выяснилось, что пропала Царевна Варвара из Соседнего Царства. И отправился Иван на её поиски. Ну и Чудо-Юдо с собой прихватил. На всякий случай. Вдруг в дороге пригодится! Не знал только Иван, что Дракон этот - совсем не тот, за кого себя выдаёт.
AppleStoreCatalogID : 1335792334
Vendor : Apple:vendor_id:2017-905039
ContentRating : ru-movie|6+|150|

Video #1
ID : 1
Format : AVC
Format/Info : Advanced Video Codec
Format profile : [email protected]
Format settings, CABAC : Yes
Format settings, ReFrames : 4 frames
Codec ID : avc1
Codec ID/Info : Advanced Video Coding
Duration : 1h 14mn
Bit rate : 5 080 Kbps
Width : 1 920 pixels
Height : 1 038 pixels
Display aspect ratio : 1.85:1
Frame rate mode : Variable
Frame rate : 24.000 fps
Minimum frame rate : 23.810 fps
Maximum frame rate : 24.390 fps
Color space : YUV
Chroma subsampling : 4:2:0
Bit depth : 8 bits
Scan type : Progressive
Bits/(Pixel*Frame) : 0.106
Stream size : 2.66 GiB (90%)
Title : Main Program
Language : Russian
Encoded date : UTC 2018-01-26 09:36:23
Tagged date : UTC 2018-01-26 09:36:28
Color range : Limited
Color primaries : BT.709
Transfer characteristics : BT.709
Matrix coefficients : BT.709

Video #2
ID : 5
Format : JPEG
Codec ID : jpeg
Duration : 1h 14mn
Bit rate mode : Variable
Bit rate : 828 bps
Width : 640 pixels
Height : 346 pixels
Display aspect ratio : 1.85:1
Frame rate mode : Variable
Frame rate : 0.002 fps
Minimum frame rate : 0.001 fps
Maximum frame rate : 0.003 fps
Color space : YUV
Chroma subsampling : 4:2:0
Bit depth : 8 bits
Compression mode : Lossy
Bits/(Pixel*Frame) : 1.870
Stream size : 505 KiB (0%)
Title : Chapter Images
Language : Russian
Encoded date : UTC 2018-01-26 09:36:32
Tagged date : UTC 2018-01-26 09:36:33

Audio #1
ID : 2
Format : AAC
Format/Info : Advanced Audio Codec
Format profile : LC
Codec ID : 40
Duration : 1h 14mn
Source duration : 1h 14mn
Bit rate mode : Variable
Bit rate : 160 Kbps
Maximum bit rate : 222 Kbps
Channel(s) : 2 channels
Channel positions : Front: L R
Sampling rate : 48.0 KHz
Compression mode : Lossy
Stream size : 85.6 MiB (3%)
Source stream size : 85.6 MiB (3%)
Title : Russian Stereo
Language : Russian
Encoded date : UTC 2018-01-26 09:36:23
Tagged date : UTC 2018-01-26 09:36:29

Audio #2
ID : 3
Format : AC-3
Format/Info : Audio Coding 3
Mode extension : CM (complete main)
Format settings, Endianness : Big
Codec ID : ac-3
Duration : 1h 14mn
Bit rate mode : Constant
Bit rate : 384 Kbps
Channel(s) : 6 channels
Channel positions : Front: L C R, Side: L R, LFE
Sampling rate : 48.0 KHz
Bit depth : 16 bits
Compression mode : Lossy
Stream size : 206 MiB (7%)
Title : Russian DD 5.1
Language : Russian
Encoded date : UTC 2018-01-26 09:36:23
Tagged date : UTC 2018-01-26 09:36:28

Menu #1
00:00:00.000 : 1
00:05:37.207 : 2
00:12:26.583 : 3
00:19:25.916 : 4
00:27:07.041 : 5
00:34:03.624 : 6
00:42:04.499 : 7
00:48:31.832 : 8
00:54:11.332 : 9
01:01:35.957 : 10

Menu #2
ID : 4
Codec ID : text
Duration : 1h 14mn
Language : Russian
Encoded date : UTC 2018-01-26 09:36:29
Tagged date : UTC 2018-01-26 09:36:29
00:00:00.000 : 1
00:05:37.207 : 2
00:12:26.583 : 3
00:19:25.916 : 4
00:27:07.041 : 5
00:34:03.624 : 6
00:42:04.499 : 7
00:48:31.832 : 8
00:54:11.332 : 9
01:01:35.957 : 10
Bit rate mode : VBR
Релиз подготовлен для просмотра на Apple TV, iPad, iPhone, iPod Touch.
Для просмотра данного релиза на компьютере с ОС Windows рекомендуется использовать VLC media player

Трекер:  [ 26-Янв-2018 13:12 ]

  

Скачать .torrent

Размер .torrent файла 30 KB


Размер: 2.95 GB
Хэш (hash) релиза: 15f38874c8378ac986b008f98fccf6b8f9ce7921

Еще никто не оставлял запись к записи скачать торрент [ATV3] Чудо-Юдо . Будь первым!

!Обратная связь