David Gulpilil | Joesiah Amos | Ella Barter

Скачать через торрент Обет молчания Acts of Vengeance бесплатно русская версия torrent активатор

Статистика раздачи
Размер:  2.96 GB   |    Зарегистрирован:  4 месяца 28 дней   |    .torrent скачан:  33 раза   |   
Раздают:  1  
   
загрузка...
 
Автор Сообщение

Galfimbul

avatar Galfimbul


Обет молчания / Acts of Vengeance
«Дела красноречивее слов»

5.651 / 10 5.60 / 10
Год выпуска: 2017
Страна: США
Жанр: Боевик, драма
Продолжительность: 01:27:20

Перевод: Дублированный (iTunes)
Оригинальная аудиодорожка: Есть
Cубтитры: Русские, Английские
Режиссёр: Айзек Флорентайн
Сценарий: Мэтт Венн
Продюсер: Ярив Лернер, Лес Уэлдон, Ави Лернер
Оператор: Ярон Шарф
Композитор: Фредерик Вьедманн
Художник: Антонелло Рубино, Юда Акко, Арта Тоцци
Монтаж: Пол Харб, Иван Тодоров Иванов, Ирит Раз
В ролях: Антонио Бандерас, Пас Вега, Карл Урбан, Кристина Серафини, Атанас Сребрев, Эрик Али, Лиллиэн Бланкеншип, Оуэн Дэвис, Клинт Дайер, Кит Д. Эванс

Сборы в России: $9 111

Мировая премьера: 27 октября 2017
Премьера (РФ): 23 ноября 2017, «MEGOGO Distribution»

Описание: Успешный адвокат и счастливый семьянин Фрэнк в один миг теряет жену и дочь. Произошло жестокое убийство, но расследование не продвинулось ни на шаг. Теперь у юриста в жизни одна цель: найти настоящих убийц. Он начинает собственное расследование. Взяв правосудие в свои руки, он клянется, что не произнесет ни слова до тех пор, пока не отомстит за семью.Качество исходника: BDRemux ((NNMClub)
Качество: BDRip
Тип: HD (720p)
Контейнер: M4V
Видео: H.264, 1280x696, 1.85:1, 3 500 Kbps, 23.976 (24000/1001) fps

Аудио 1: Русский/Дублированный (iTunes), AAC / 2.0 / 160 Kbps / 48.0 KHz
Аудио 2: Английский/Оригинальная дорожка , AAC / 2.0 / 160 Kbps / 48.0 KHz
Аудио 3: Русский/Дублированный (iTunes), AC-3 / 5.1 / 384 Kbps / 48.0 KHz
Аудио 4: Английский/Оригинальная дорожка , AC-3 / 5.1 / 640 Kbps / 48.0 KHz

Субтитры 1: Русские полные
Субтитры 2: Английские полные
Sort Name: Acts of Vengeance
XID: Apple:vendor_id:2017-1009473
contentID: 1293607266
Screenwriters: Мэтт Венн
Producers: Ярив Лернер, Лес Уэлдон, Ави Лернер
Director: Айзек Флорентайн
Cast: Антонио Бандерас, Кристина Серафини, Атанас Сребрев, Карл Урбан, Пас Вега, Роберт Форстер, Лиллиэн Бланкеншип, Марк Смит, Айзек Флорентайн.
Studio: Saban
Rating: 5
Long Description: Успешный адвокат и счастливый семьянин Фрэнк в один миг теряет жену и дочь. Произошло жестокое убийство, но расследование не продвинулось ни на шаг. Теперь у юриста в жизни одна цель: найти настоящих убийц. Он начинает собственное расследование. Взяв правосудие в свои руки, он клянется, что не произнесет ни слова до тех пор, пока не отомстит за семью.
Description: Успешный адвокат и счастливый семьянин Фрэнк в один миг теряет жену и дочь. Произошло жестокое убийство, но расследование не продвинулось ни на шаг. Теперь у юриста в жизни одна цель: найти настоящих убийц.
Release Date: 2017-10-27T07:00:00Z
Genre: Action & Adventure
Artist: Isaac Florentine
Name: Acts of Vengeance
General
Complete name                            : /Users/imac/HandBrake/Acts of Vengeance (720p HD).m4v
Format                                   : MPEG-4
Codec ID                                 : M4V  (M4V /M4A /mp42/isom)
File size                                : 2.96 GiB
Duration                                 : 1h 27mn
Overall bit rate mode                    : Variable
Overall bit rate                         : 4 846 Kbps
Movie name                               : Acts of Vengeance
Performer                                : Isaac Florentine
Director                                 : Айзек Флорентайн
Actor                                    : Антонио Бандерас / Кристина Серафини / Атанас Сребрев / Карл Урбан / Пас Вега / Роберт Форстер / Лиллиэн Бланкеншип / Марк Смит / Айзек Флорентайн.
Screenplay by                            : Мэтт Венн
Producer                                 : Ярив Лернер / Лес Уэлдон / Ави Лернер
Production studio                        : Saban
Genre                                    : Action & Adventure
ContentType                              : Short Film
Description                              : Успешный адвокат и счастливый семьянин Фрэнк в один миг теряет жену и дочь. Произошло жестокое убийство, но расследование не продвинулось ни на шаг. Теперь у юриста в жизни одна цель: найти настоящих убийц.
Recorded date                            : UTC 2017-10-27 07:00:00
Encoded date                             : UTC 2018-01-24 22:36:23
Tagged date                              : UTC 2018-01-24 22:37:28
Cover                                    : Yes
Rating                                   : None
Title/Sort                               : Acts of Vengeance
LongDescription                          : Успешный адвокат и счастливый семьянин Фрэнк в один миг теряет жену и дочь. Произошло жестокое убийство, но расследование не продвинулось ни на шаг. Теперь у юриста в жизни одна цель: найти настоящих убийц. Он начинает собственное расследование. Взяв правосудие в свои руки, он клянется, что не произнесет ни слова до тех пор, пока не отомстит за семью.
HDVideo                                  : Yes
AppleStoreCatalogID                      : 1293607266
Vendor                                   : Apple:vendor_id:2017-1009473
ContentRating                            : mpaa|R|400|

Video #1
ID                                       : 1
Format                                   : AVC
Format/Info                              : Advanced Video Codec
Format profile                           : [email protected]
Format settings                          : 3 Ref Frames
Format settings, CABAC                   : No
Format settings, ReFrames                : 3 frames
Codec ID                                 : avc1
Codec ID/Info                            : Advanced Video Coding
Duration                                 : 1h 27mn
Source duration                          : 1h 27mn
Bit rate                                 : 3 500 Kbps
Width                                    : 1 280 pixels
Height                                   : 696 pixels
Display aspect ratio                     : 1.85:1
Frame rate mode                          : Variable
Frame rate                               : 23.976 (24000/1001) fps
Minimum frame rate                       : 23.974 fps
Maximum frame rate                       : 23.981 fps
Color space                              : YUV
Chroma subsampling                       : 4:2:0
Bit depth                                : 8 bits
Scan type                                : Progressive
Bits/(Pixel*Frame)                       : 0.164
Stream size                              : 2.13 GiB (72%)
Source stream size                       : 2.13 GiB (72%)
Title                                    : Main Program
Writing library                          : x264 core 148 r2708 86b7198
Encoding settings                        : cabac=0 / ref=3 / deblock=1:-3:-3 / analyse=0x3:0x113 / me=umh / subme=9 / psy=1 / psy_rd=1.00:0.15 / mixed_ref=1 / me_range=32 / chroma_me=1 / trellis=0 / 8x8dct=1 / cqm=0 / deadzone=21,11 / fast_pskip=0 / chroma_qp_offset=-2 / threads=22 / lookahead_threads=1 / sliced_threads=0 / nr=0 / decimate=0 / interlaced=0 / bluray_compat=0 / constrained_intra=0 / bframes=3 / b_pyramid=0 / b_adapt=2 / b_bias=0 / direct=1 / weightb=0 / open_gop=0 / weightp=0 / keyint=240 / keyint_min=24 / scenecut=40 / intra_refresh=0 / rc_lookahead=40 / rc=2pass / mbtree=1 / bitrate=3500 / ratetol=1.0 / qcomp=0.65 / qpmin=0 / qpmax=69 / qpstep=4 / cplxblur=20.0 / qblur=0.5 / vbv_maxrate=9500 / vbv_bufsize=9500 / nal_hrd=none / filler=0 / ip_ratio=1.40 / aq=1:1.10
Language                                 : English
Encoded date                             : UTC 2018-01-24 22:36:23
Tagged date                              : UTC 2018-01-24 22:36:30
Color range                              : Limited
Color primaries                          : BT.709
Transfer characteristics                 : BT.709
Matrix coefficients                      : BT.709
Menus                                    : 8,9

Video #2
ID                                       : 9
Format                                   : JPEG
Codec ID                                 : jpeg
Duration                                 : 1h 27mn
Bit rate mode                            : Variable
Bit rate                                 : 795 bps
Width                                    : 640 pixels
Height                                   : 348 pixels
Display aspect ratio                     : 1.85:1
Frame rate mode                          : Variable
Frame rate                               : 0.003 fps
Minimum frame rate                       : 0.002 fps
Maximum frame rate                       : 1.142 fps
Color space                              : YUV
Chroma subsampling                       : 4:2:0
Bit depth                                : 8 bits
Compression mode                         : Lossy
Bits/(Pixel*Frame)                       : 1.190
Stream size                              : 550 KiB (0%)
Title                                    : Chapter Images
Language                                 : English
Default                                  : No
Encoded date                             : UTC 2018-01-24 22:36:37
Tagged date                              : UTC 2018-01-24 22:36:37
Menu For                                 : 1

Audio #1
ID                                       : 2
Format                                   : AAC
Format/Info                              : Advanced Audio Codec
Format profile                           : LC
Codec ID                                 : mp4a-40-2
Duration                                 : 1h 27mn
Source duration                          : 1h 27mn
Bit rate mode                            : Variable
Bit rate                                 : 157 Kbps
Maximum bit rate                         : 228 Kbps
Channel(s)                               : 2 channels
Channel positions                        : Front: L R
Sampling rate                            : 48.0 KHz
Frame rate                               : 46.875 fps (1024 SPF)
Compression mode                         : Lossy
Stream size                              : 98.3 MiB (3%)
Source stream size                       : 98.3 MiB (3%)
Title                                    : Russian Stereo
Language                                 : Russian
Default                                  : Yes
Alternate group                          : 1
Encoded date                             : UTC 2018-01-24 22:36:23
Tagged date                              : UTC 2018-01-24 22:36:33
Fallback From                            : 4

Audio #2
ID                                       : 3
Format                                   : AAC
Format/Info                              : Advanced Audio Codec
Format profile                           : LC
Codec ID                                 : mp4a-40-2
Duration                                 : 1h 27mn
Source duration                          : 1h 27mn
Bit rate mode                            : Variable
Bit rate                                 : 159 Kbps
Maximum bit rate                         : 244 Kbps
Channel(s)                               : 2 channels
Channel positions                        : Front: L R
Sampling rate                            : 48.0 KHz
Frame rate                               : 46.875 fps (1024 SPF)
Compression mode                         : Lossy
Stream size                              : 99.4 MiB (3%)
Source stream size                       : 99.4 MiB (3%)
Title                                    : English Stereo
Language                                 : English
Default                                  : No
Alternate group                          : 1
Encoded date                             : UTC 2018-01-24 22:36:23
Tagged date                              : UTC 2018-01-24 22:36:33
Fallback From                            : 5

Audio #3
ID                                       : 4
Format                                   : AC-3
Format/Info                              : Audio Coding 3
Codec ID                                 : ac-3
Duration                                 : 1h 27mn
Bit rate mode                            : Constant
Bit rate                                 : 384 Kbps
Channel(s)                               : 6 channels
Channel positions                        : Front: L C R, Side: L R, LFE
Sampling rate                            : 48.0 KHz
Frame rate                               : 31.250 fps (1536 SPF)
Bit depth                                : 16 bits
Compression mode                         : Lossy
Stream size                              : 240 MiB (8%)
Title                                    : Russian DD 5.1
Language                                 : Russian
Service kind                             : Complete Main
Default                                  : Inherited From: 2
Alternate group                          : 1
Encoded date                             : UTC 2018-01-24 22:36:23
Tagged date                              : UTC 2018-01-24 22:36:33
Fallback To                              : 2

Audio #4
ID                                       : 5
Format                                   : AC-3
Format/Info                              : Audio Coding 3
Codec ID                                 : ac-3
Duration                                 : 1h 27mn
Bit rate mode                            : Constant
Bit rate                                 : 640 Kbps
Channel(s)                               : 6 channels
Channel positions                        : Front: L C R, Side: L R, LFE
Sampling rate                            : 48.0 KHz
Frame rate                               : 31.250 fps (1536 SPF)
Bit depth                                : 16 bits
Compression mode                         : Lossy
Stream size                              : 400 MiB (13%)
Title                                    : English DD 5.1
Language                                 : English
Service kind                             : Complete Main
Default                                  : No
Alternate group                          : 1
Encoded date                             : UTC 2018-01-24 22:36:23
Tagged date                              : UTC 2018-01-24 22:36:33
Fallback To                              : 3

Text #1
ID                                       : 6
Format                                   : Timed Text
Muxing mode                              : sbtl
Codec ID                                 : tx3g
Duration                                 : 1h 23mn
Bit rate mode                            : Variable
Bit rate                                 : 55 bps
Stream size                              : 33.6 KiB (0%)
Title                                    : Russian full
Language                                 : Russian
Default                                  : Yes
Forced                                   : No
Alternate group                          : 2
Encoded date                             : UTC 2018-01-24 22:36:23
Tagged date                              : UTC 2018-01-24 22:36:33

Text #2
ID                                       : 7
Format                                   : Timed Text
Muxing mode                              : sbtl
Codec ID                                 : tx3g
Duration                                 : 1h 23mn
Bit rate mode                            : Variable
Bit rate                                 : 33 bps
Stream size                              : 20.0 KiB (0%)
Title                                    : English full
Language                                 : English
Default                                  : No
Forced                                   : No
Alternate group                          : 2
Encoded date                             : UTC 2018-01-24 22:36:23
Tagged date                              : UTC 2018-01-24 22:36:33

Menu #1
00:00:00.000                             : Chapter 1
00:05:16.149                             : Chapter 2
00:11:00.451                             : Chapter 3
00:17:49.318                             : Chapter 5
00:24:10.699                             : Chapter 6
00:29:07.037                             : Chapter 8
00:35:13.987                             : Chapter 9
00:39:11.808                             : Chapter 11
00:46:29.287                             : Chapter 12
00:52:56.548                             : Chapter 13
01:00:37.634                             : Chapter 14
01:05:27.465                             : Chapter 15
01:09:15.026                             : Chapter 16
01:09:15.902                             : Chapter 17
01:13:51.969                             : Chapter 18
01:21:31.637                             : Chapter 19
01:23:55.364                             : Chapter 20

Menu #2
ID                                       : 8
Codec ID                                 : text
Duration                                 : 1h 27mn
Language                                 : English
Encoded date                             : UTC 2018-01-24 22:36:33
Tagged date                              : UTC 2018-01-24 22:36:33
Menu For                                 : 1
00:00:00.000                             : Chapter 1
00:05:16.149                             : Chapter 2
00:11:00.451                             : Chapter 3
00:17:49.318                             : Chapter 5
00:24:10.699                             : Chapter 6
00:29:07.037                             : Chapter 8
00:35:13.987                             : Chapter 9
00:39:11.808                             : Chapter 11
00:46:29.287                             : Chapter 12
00:52:56.548                             : Chapter 13
01:00:37.634                             : Chapter 14
01:05:27.465                             : Chapter 15
01:09:15.026                             : Chapter 16
01:09:15.902                             : Chapter 17
01:13:51.969                             : Chapter 18
01:21:31.637                             : Chapter 19
01:23:55.364                             : Chapter 20
Bit rate mode                            : VBR
x264 [info]: frame I:1020  Avg QP:14.42  size:114762
x264 [info]: frame P:48589 Avg QP:17.29  size: 32483
x264 [info]: frame B:76031 Avg QP:18.73  size:  7825
x264 [info]: consecutive B-frames:  5.5% 28.7% 38.3% 27.5%
x264 [info]: mb I  I16..4: 11.1% 56.2% 32.6%
x264 [info]: mb P  I16..4:  3.4%  6.5%  2.7%  P16..4: 49.2% 21.8%  9.0%  0.0%  0.0%    skip: 7.5%
x264 [info]: mb B  I16..4:  0.3%  0.6%  0.3%  B16..8: 42.3%  8.2%  1.1%  direct: 3.6%  skip:43.5%  L0:38.7% L1:53.4% BI: 7.9%
x264 [info]: 8x8 transform intra:52.1% inter:45.2%
x264 [info]: coded y,uvDC,uvAC intra: 68.5% 75.8% 50.2% inter: 18.3% 21.1% 12.1%
x264 [info]: i16 v,h,dc,p: 47% 15%  7% 31%
x264 [info]: i8 v,h,dc,ddl,ddr,vr,hd,vl,hu: 11%  9%  7% 10% 14% 14% 13% 11% 11%
x264 [info]: i4 v,h,dc,ddl,ddr,vr,hd,vl,hu: 12% 10%  6% 11% 16% 15% 13% 10%  8%
x264 [info]: i8c dc,h,v,p: 52% 17% 20% 11%
x264 [info]: ref P L0: 74.5% 15.2% 10.3%
x264 [info]: ref B L0: 79.5% 20.5%
x264 [info]: kb/s:3496.41
Релиз подготовлен для просмотра на Apple TV, iPad, iPhone, iPod Touch.
Для просмотра данного релиза на компьютере с ОС Windows рекомендуется использовать VLC media player

Трекер:  [ 25-Янв-2018 02:12 ]

  

Скачать .torrent

Размер .torrent файла 30 KB


Размер: 2.96 GB
Хэш (hash) релиза: 8ff6d7d8efb06ad03b288266d6d585f5c5207e0a

Еще никто не оставлял запись к записи скачать торрент Обет молчания Acts of Vengeance . Будь первым!

!Обратная связь