amarr garage door springs s s amecan amarr garage door parts uk
automated garage door opener garage door opener installation sears

[ATV3] Acts of Vengeance torrent

, , - AdBlock. #!


5.7 GB   |    :  30    |    .torrent :  25    |   
2  
   
...
 

Galfimbul

avatar Galfimbul


/ Acts of Vengeance


5.651 / 10 5.60 / 10
: 2017
:
: ,
: 01:27:20

: (iTunes)
:
C: ,
:
:
: , ,
:
:
: , ,
: , ,
: , , , , , , , , , .

: $9 111

: 27 2017
(): 23 2017, MEGOGO Distribution

: . , . : . . , , , . : BDRemux ((NNMClub)
: BDRip
: HD (1080p)
: M4V
: H.264, 1920x1040, 1.85:1, 8 000 Kbps, 23.976 (24000/1001) fps

1: / (iTunes), AAC / 2.0 / 160 Kbps / 48.0 KHz
2: / , AAC / 2.0 / 160 Kbps / 48.0 KHz
3: / (iTunes), AC-3 / 5.1 / 384 Kbps / 48.0 KHz
4: / , AC-3 / 5.1 / 640 Kbps / 48.0 KHz

1:
2:
Sort Name: Acts of Vengeance
XID: Apple:vendor_id:2017-1009473
contentID: 1293607266
Screenwriters:
Producers: , ,
Director:
Cast: , , , , , , , , .
Studio: Saban
Rating: 5
Long Description: . , . : . . , , , .
Description: . , . : .
Release Date: 2017-10-27T07:00:00Z
Genre: Action & Adventure
Artist: Isaac Florentine
Name: Acts of Vengeance
General
Complete name : /Users/imac/HandBrake/Acts of Vengeance (1080p HD).m4v
Format : MPEG-4
Codec ID : M4V (M4V /M4A /mp42/isom)
File size : 5.70 GiB
Duration : 1h 27mn
Overall bit rate mode : Variable
Overall bit rate : 9 347 Kbps
Movie name : Acts of Vengeance
Performer : Isaac Florentine
Director :
Actor : / / / / / / / / .
Screenplay by :
Producer : / /
Production studio : Saban
Genre : Action & Adventure
ContentType : Short Film
Description : . , . : .
Recorded date : UTC 2017-10-27 07:00:00
Encoded date : UTC 2018-01-24 21:54:49
Tagged date : UTC 2018-01-24 21:57:01
Cover : Yes
Rating : None
Title/Sort : Acts of Vengeance
LongDescription : . , . : . . , , , .
AppleStoreCatalogID : 1293607266
Vendor : Apple:vendor_id:2017-1009473
ContentRating : mpaa|R|400|

Video #1
ID : 1
Format : AVC
Format/Info : Advanced Video Codec
Format profile : [email protected]
Format settings : CABAC / 4 Ref Frames
Format settings, CABAC : Yes
Format settings, ReFrames : 4 frames
Codec ID : avc1
Codec ID/Info : Advanced Video Coding
Duration : 1h 27mn
Source duration : 1h 27mn
Bit rate : 8 000 Kbps
Width : 1 920 pixels
Height : 1 040 pixels
Display aspect ratio : 1.85:1
Frame rate mode : Variable
Frame rate : 23.976 (24000/1001) fps
Minimum frame rate : 23.974 fps
Maximum frame rate : 23.981 fps
Color space : YUV
Chroma subsampling : 4:2:0
Bit depth : 8 bits
Scan type : Progressive
Bits/(Pixel*Frame) : 0.167
Stream size : 4.88 GiB (86%)
Source stream size : 4.88 GiB (86%)
Title : Main Program
Writing library : x264 core 148 r2708 86b7198
Encoding settings : cabac=1 / ref=4 / deblock=1:-2:-2 / analyse=0x3:0x133 / me=umh / subme=10 / psy=1 / psy_rd=1.00:0.15 / mixed_ref=1 / me_range=32 / chroma_me=1 / trellis=2 / 8x8dct=1 / cqm=0 / deadzone=21,11 / fast_pskip=1 / chroma_qp_offset=-3 / threads=32 / lookahead_threads=8 / sliced_threads=0 / nr=0 / decimate=0 / interlaced=0 / bluray_compat=0 / constrained_intra=0 / bframes=16 / b_pyramid=2 / b_adapt=2 / b_bias=0 / direct=3 / weightb=1 / open_gop=0 / weightp=2 / keyint=240 / keyint_min=24 / scenecut=40 / intra_refresh=0 / rc_lookahead=40 / rc=2pass / mbtree=1 / bitrate=8000 / ratetol=1.0 / qcomp=0.70 / qpmin=0 / qpmax=69 / qpstep=4 / cplxblur=20.0 / qblur=0.5 / ip_ratio=1.40 / aq=1:1.00
Language : English
Encoded date : UTC 2018-01-24 21:54:49
Tagged date : UTC 2018-01-24 21:55:03
Color range : Limited
Color primaries : BT.709
Transfer characteristics : BT.709
Matrix coefficients : BT.709
Menus : 8,9

Video #2
ID : 9
Format : JPEG
Codec ID : jpeg
Duration : 1h 27mn
Bit rate mode : Variable
Bit rate : 785 bps
Width : 640 pixels
Height : 346 pixels
Display aspect ratio : 1.85:1
Frame rate mode : Variable
Frame rate : 0.003 fps
Minimum frame rate : 0.002 fps
Maximum frame rate : 1.142 fps
Color space : YUV
Chroma subsampling : 4:2:0
Bit depth : 8 bits
Compression mode : Lossy
Bits/(Pixel*Frame) : 1.182
Stream size : 543 KiB (0%)
Title : Chapter Images
Language : English
Default : No
Encoded date : UTC 2018-01-24 21:55:13
Tagged date : UTC 2018-01-24 21:55:13
Menu For : 1

Audio #1
ID : 2
Format : AAC
Format/Info : Advanced Audio Codec
Format profile : LC
Codec ID : mp4a-40-2
Duration : 1h 27mn
Source duration : 1h 27mn
Bit rate mode : Variable
Bit rate : 157 Kbps
Maximum bit rate : 228 Kbps
Channel(s) : 2 channels
Channel positions : Front: L R
Sampling rate : 48.0 KHz
Frame rate : 46.875 fps (1024 SPF)
Compression mode : Lossy
Stream size : 98.3 MiB (2%)
Source stream size : 98.3 MiB (2%)
Title : Russian Stereo
Language : Russian
Default : Yes
Alternate group : 1
Encoded date : UTC 2018-01-24 21:54:49
Tagged date : UTC 2018-01-24 21:55:06
Fallback From : 4
Menus : 8

Audio #2
ID : 3
Format : AAC
Format/Info : Advanced Audio Codec
Format profile : LC
Codec ID : mp4a-40-2
Duration : 1h 27mn
Source duration : 1h 27mn
Bit rate mode : Variable
Bit rate : 159 Kbps
Maximum bit rate : 244 Kbps
Channel(s) : 2 channels
Channel positions : Front: L R
Sampling rate : 48.0 KHz
Frame rate : 46.875 fps (1024 SPF)
Compression mode : Lossy
Stream size : 99.4 MiB (2%)
Source stream size : 99.4 MiB (2%)
Title : English Stereo
Language : English
Default : No
Alternate group : 1
Encoded date : UTC 2018-01-24 21:54:49
Tagged date : UTC 2018-01-24 21:55:06
Fallback From : 5

Audio #3
ID : 4
Format : AC-3
Format/Info : Audio Coding 3
Codec ID : ac-3
Duration : 1h 27mn
Bit rate mode : Constant
Bit rate : 384 Kbps
Channel(s) : 6 channels
Channel positions : Front: L C R, Side: L R, LFE
Sampling rate : 48.0 KHz
Frame rate : 31.250 fps (1536 SPF)
Bit depth : 16 bits
Compression mode : Lossy
Stream size : 240 MiB (4%)
Title : Russian DD 5.1
Language : Russian
Service kind : Complete Main
Default : Inherited From: 2
Alternate group : 1
Encoded date : UTC 2018-01-24 21:54:49
Tagged date : UTC 2018-01-24 21:54:57
Fallback To : 2

Audio #4
ID : 5
Format : AC-3
Format/Info : Audio Coding 3
Codec ID : ac-3
Duration : 1h 27mn
Bit rate mode : Constant
Bit rate : 640 Kbps
Channel(s) : 6 channels
Channel positions : Front: L C R, Side: L R, LFE
Sampling rate : 48.0 KHz
Frame rate : 31.250 fps (1536 SPF)
Bit depth : 16 bits
Compression mode : Lossy
Stream size : 400 MiB (7%)
Title : English DD 5.1
Language : English
Service kind : Complete Main
Default : No
Alternate group : 1
Encoded date : UTC 2018-01-24 21:54:49
Tagged date : UTC 2018-01-24 21:54:57
Fallback To : 3

Text #1
ID : 6
Format : Timed Text
Muxing mode : sbtl
Codec ID : tx3g
Duration : 1h 27mn
Bit rate mode : Variable
Bit rate : 53 bps
Stream size : 33.6 KiB (0%)
Title : Russian full
Language : Russian
Default : Yes
Forced : No
Alternate group : 2
Encoded date : UTC 2018-01-24 21:54:49
Tagged date : UTC 2018-01-24 21:54:49

Text #2
ID : 7
Format : Timed Text
Muxing mode : sbtl
Codec ID : tx3g
Duration : 1h 23mn
Bit rate mode : Variable
Bit rate : 33 bps
Stream size : 20.0 KiB (0%)
Title : English full
Language : English
Default : No
Forced : No
Alternate group : 2
Encoded date : UTC 2018-01-24 21:54:49
Tagged date : UTC 2018-01-24 21:54:49

Menu #1
00:00:00.000 : Chapter 1
00:05:16.149 : Chapter 2
00:11:00.451 : Chapter 3
00:17:49.318 : Chapter 5
00:24:10.699 : Chapter 6
00:29:07.037 : Chapter 8
00:35:13.987 : Chapter 9
00:39:11.808 : Chapter 11
00:46:29.287 : Chapter 12
00:52:56.548 : Chapter 13
01:00:37.634 : Chapter 14
01:05:27.465 : Chapter 15
01:09:15.026 : Chapter 16
01:09:15.902 : Chapter 17
01:13:51.969 : Chapter 18
01:21:31.637 : Chapter 19
01:23:55.364 : Chapter 20

Menu #2
ID : 8
Codec ID : text
Duration : 1h 27mn
Language : English
Encoded date : UTC 2018-01-24 21:55:06
Tagged date : UTC 2018-01-24 21:55:06
Menu For : 2,1
00:00:00.000 : Chapter 1
00:05:16.149 : Chapter 2
00:11:00.451 : Chapter 3
00:17:49.318 : Chapter 5
00:24:10.699 : Chapter 6
00:29:07.037 : Chapter 8
00:35:13.987 : Chapter 9
00:39:11.808 : Chapter 11
00:46:29.287 : Chapter 12
00:52:56.548 : Chapter 13
01:00:37.634 : Chapter 14
01:05:27.465 : Chapter 15
01:09:15.026 : Chapter 16
01:09:15.902 : Chapter 17
01:13:51.969 : Chapter 18
01:21:31.637 : Chapter 19
01:23:55.364 : Chapter 20
Bit rate mode : VBR
x264 [info]: frame I:752 Avg QP:14.91 size:238851
x264 [info]: frame P:33473 Avg QP:18.27 size: 73479
x264 [info]: frame B:91415 Avg QP:18.61 size: 28438
x264 [info]: consecutive B-frames: 4.8% 5.1% 21.1% 13.3% 15.2% 34.4% 3.4% 0.6% 0.4% 0.3% 0.2% 0.1% 0.1% 0.2% 0.1% 0.2% 0.6%
x264 [info]: mb I I16..4: 16.9% 67.4% 15.7%
x264 [info]: mb P I16..4: 5.6% 16.3% 1.5% P16..4: 45.0% 14.1% 9.2% 0.3% 0.1% skip: 7.8%
x264 [info]: mb B I16..4: 0.8% 1.5% 0.1% B16..8: 39.9% 7.9% 1.6% direct: 9.8% skip:38.4% L0:45.6% L1:43.5% BI:10.9%
x264 [info]: 8x8 transform intra:67.9% inter:64.5%
x264 [info]: direct mvs spatial:99.0% temporal:1.0%
x264 [info]: coded y,uvDC,uvAC intra: 68.5% 79.3% 55.9% inter: 24.8% 34.9% 17.2%
x264 [info]: i16 v,h,dc,p: 41% 14% 14% 31%
x264 [info]: i8 v,h,dc,ddl,ddr,vr,hd,vl,hu: 12% 10% 14% 8% 11% 11% 11% 11% 11%
x264 [info]: i4 v,h,dc,ddl,ddr,vr,hd,vl,hu: 12% 10% 10% 9% 14% 12% 12% 9% 11%
x264 [info]: i8c dc,h,v,p: 49% 21% 18% 12%
x264 [info]: Weighted P-Frames: Y:2.5% UV:1.4%
x264 [info]: ref P L0: 56.2% 9.5% 24.1% 9.5% 0.7% 0.0%
x264 [info]: ref B L0: 82.9% 14.2% 2.9%
x264 [info]: ref B L1: 94.3% 5.7%
x264 [info]: kb/s:7997.70
Apple TV, iPad, iPhone, iPod Touch.
Windows VLC media player

 ·  , , FAQ-
:  [ 25--2018 01:42 ]

  

.torrent

.torrent 57 KB


: 5.7 GB
(hash) : 4fa1c0e55080fdf2ba9e0932bb6ed14a184bb718
··
...

[ATV3] Acts of Vengeance . !

!