ROMs and modifications | The Borgias | СКАЧАТЬ: / подробнее

Скачать через торрент [iPad] Субурбикон Suburbicon бесплатно русская версия torrent активатор

Статистика раздачи
Размер:  1.7 GB   |    Зарегистрирован:  3 месяца 30 дней   |    .torrent скачан:  32 раза   |   
Раздают:  1  
   
загрузка...
 
Автор Сообщение

Galfimbul

avatar Galfimbul


Субурбикон / Suburbicon
«Райский уголок ада»

6.556 / 10 5.40 / 10
Год выпуска: 2017
Страна: США
Жанр: Триллер, драма, криминал, детектив
Продолжительность: 01:44:10

Перевод: Дублированный (iTunes)
Оригинальная аудиодорожка: Нет
Cубтитры: Нет
Режиссёр: Джордж Клуни
Сценарий: Джоэл Коэн, Итан Коэн, Джордж Клуни
Продюсер: Джордж Клуни, Грант Хеслов, Тедди Шварцман
Оператор: Роберт Элсвит
Композитор: Александр Депла
Художник: Джеймс Д. Бисселл, Криста Манро, Дженни Иген
Монтаж: Стивен Миррионе
В ролях: Мэтт Дэймон, Джулианна Мур, Оскар Айзек, Ноа Джуп, Гленн Флешлер, Меган Фергюсон, Джек Конли, Гэри Басараба, Майкл Коэн, Стив Монро

Сборы в США: $5 775 178
Сборы в России: $482 198

Мировая премьера: 2 сентября 2017
Премьера (РФ): 16 ноября 2017, «Cinema Prestige»

Цифровой релиз: 23 января 2018, «Cinema Prestige»

Описание: Добро пожаловать в солнечный Субурбикон! В прекрасный тихий городок в самом сердце Америки. Счастливые семьи. Недорогие миленькие дома. Ухоженные газоны. Воплощение американской мечты. Чудесную жизнь городка внезапно прерывает шокирующее, из ряда вон выходящее событие — образцовая семья переживает вторжение в их семейное гнёздышко. Это событие толкает на худшие поступки в их идиллической жизни — шантаж, месть и предательство.Качество исходника: WEB-DL 1080p (BlueBird)
Качество: WEB-DLRip
Тип: SD (576p)
Контейнер: M4V
Видео: H.264, 1024x432, 2.40:1, 2 200 Kbps, 23.976 fps

Аудио: Русский/Дублированный (iTunes), AAC / 2.0 / 128 Kbps / 48.0 KHz
Sort Name: Suburbicon
XID: Apple:vendor_id:2017-262051
contentID: 1293437205
Copyright: © 2017 Paramount Pictures. All Rights Reserved
Screenwriters: Джоэл Коэн, Итан Коэн, Джордж Клуни
Producers: Джордж Клуни, Грант Хеслов, Тедди Шварцман
Director: Джордж Клуни
Cast: Мэтт Дэймон, Джулианна Мур, Оскар Айзек, Ноа Джуп, Гленн Флешлер, Меган Фергюсон, Джек Конли, Гэри Басараба, Майкл Коэн, Стив Монро, Гарик Харламов, Елена Соловьева, Кирилл Туранский, Арсений Куликов, Денис Беспалый
Studio: Paramount Pictures
Rating: 5
Long Description: Добро пожаловать в солнечный Субурбикон! В прекрасный тихий городок в самом сердце Америки. Счастливые семьи. Недорогие миленькие дома. Ухоженные газоны. Воплощение американской мечты. Чудесную жизнь городка внезапно прерывает шокирующее, из ряда вон выходящее событие - образцовая семья переживает вторжение в их семейное гнёздышко. Это событие толкает на худшие поступки в их идиллической жизни - шантаж, месть и предательство.
Description: Добро пожаловать в солнечный Субурбикон! В прекрасный тихий городок в самом сердце Америки. Счастливые семьи. Недорогие миленькие дома. Ухоженные газоны. Воплощение американской мечты. Чудесную жизнь городка внезапно прерывает шокирующее, из ряда вон выходящее событие - образцовая семья переживает вторжение в их семейное гнёздышко. Это событие толкает на худшие поступки в их идиллической жизни - шантаж, месть и предательство.
Release Date: 2017-09-02T08:00:00Z
Genre: Comedy
Artist: George Clooney
Name: Suburbicon
General
Complete name : /Users/imac/HandBrake/Suburbicon.(SD).(pk).m4v
Format : MPEG-4
Codec ID : M4V
File size : 1.70 GiB
Duration : 1h 44mn
Overall bit rate mode : Variable
Overall bit rate : 2 333 Kbps
Movie name : Suburbicon
Performer : George Clooney
Director : Джордж Клуни
Actor : Мэтт Дэймон / Джулианна Мур / Оскар Айзек / Ноа Джуп / Гленн Флешлер / Меган Фергюсон / Джек Конли / Гэри Басараба / Майкл Коэн / Стив Монро / Гарик Харламов / Елена Соловьева / Кирилл Туранский / Арсений Куликов / Денис Беспалый
Screenplay by : Джоэл Коэн / Итан Коэн / Джордж Клуни
Producer : Джордж Клуни / Грант Хеслов / Тедди Шварцман
Production studio : Paramount Pictures
Genre : Comedy
ContentType : Short Film
Description : Добро пожаловать в солнечный Субурбикон! В прекрасный тихий городок в самом сердце Америки. Счастливые семьи. Недорогие миленькие дома. Ухоженные газоны. Воплощение американской мечты. Чудесную жизнь городка внезапно прерывает шокирующее, из ряда вон выходящее событие - образцовая семья переживает вторжение в их семейное гнёздышко. Это событие толкает на худшие поступки в их идиллической жизни - шантаж, месть и предательство.
Recorded date : UTC 2017-09-02 08:00:00
Encoded date : UTC 2018-01-24 13:06:21
Tagged date : UTC 2018-01-24 13:07:05
Copyright : © 2017 Paramount Pictures. All Rights Reserved
Cover : Yes
Rating : None
Title/Sort : Suburbicon
LongDescription : Добро пожаловать в солнечный Субурбикон! В прекрасный тихий городок в самом сердце Америки. Счастливые семьи. Недорогие миленькие дома. Ухоженные газоны. Воплощение американской мечты. Чудесную жизнь городка внезапно прерывает шокирующее, из ряда вон выходящее событие - образцовая семья переживает вторжение в их семейное гнёздышко. Это событие толкает на худшие поступки в их идиллической жизни - шантаж, месть и предательство.
AppleStoreCatalogID : 1293437205
Vendor : Apple:vendor_id:2017-262051
ContentRating : mpaa|R|400|

Video #1
ID : 1
Format : AVC
Format/Info : Advanced Video Codec
Format profile : [email protected]
Format settings, CABAC : Yes
Format settings, ReFrames : 9 frames
Codec ID : avc1
Codec ID/Info : Advanced Video Coding
Duration : 1h 44mn
Source duration : 1h 44mn
Bit rate : 2 200 Kbps
Width : 1 024 pixels
Height : 432 pixels
Display aspect ratio : 2.40:1
Frame rate mode : Variable
Frame rate : 23.976 fps
Minimum frame rate : 23.974 fps
Maximum frame rate : 23.981 fps
Color space : YUV
Chroma subsampling : 4:2:0
Bit depth : 8 bits
Scan type : Progressive
Bits/(Pixel*Frame) : 0.207
Stream size : 1.60 GiB (94%)
Source stream size : 1.60 GiB (94%)
Title : Main Program
Writing library : x264 core 148 r2708 86b7198
Encoding settings : cabac=1 / ref=9 / deblock=1:0:0 / analyse=0x3:0x113 / me=umh / subme=9 / psy=1 / psy_rd=1.00:0.00 / mixed_ref=1 / me_range=32 / chroma_me=1 / trellis=1 / 8x8dct=1 / cqm=0 / deadzone=21,11 / fast_pskip=1 / chroma_qp_offset=-2 / threads=13 / lookahead_threads=1 / sliced_threads=0 / nr=0 / decimate=1 / interlaced=0 / bluray_compat=0 / constrained_intra=0 / bframes=6 / b_pyramid=2 / b_adapt=2 / b_bias=0 / direct=1 / weightb=1 / open_gop=0 / weightp=2 / keyint=240 / keyint_min=24 / scenecut=40 / intra_refresh=0 / rc_lookahead=40 / rc=2pass / mbtree=1 / bitrate=2200 / ratetol=1.0 / qcomp=0.60 / qpmin=0 / qpmax=69 / qpstep=4 / cplxblur=20.0 / qblur=0.5 / ip_ratio=1.40 / aq=1:1.00
Language : English
Encoded date : UTC 2018-01-24 13:06:21
Tagged date : UTC 2018-01-24 13:06:25
Color range : Limited
Color primaries : BT.709
Transfer characteristics : BT.709
Matrix coefficients : BT.709

Video #2
ID : 4
Format : JPEG
Codec ID : jpeg
Duration : 1h 44mn
Bit rate mode : Variable
Bit rate : 724 bps
Width : 640 pixels
Height : 270 pixels
Display aspect ratio : 2.40:1
Frame rate mode : Variable
Frame rate : 0.003 fps
Minimum frame rate : 0.002 fps
Maximum frame rate : 0.004 fps
Color space : YUV
Chroma subsampling : 4:2:0
Bit depth : 8 bits
Compression mode : Lossy
Bits/(Pixel*Frame) : 1.397
Stream size : 471 KiB (0%)
Title : Chapter Images
Language : English
Encoded date : UTC 2018-01-24 13:06:31
Tagged date : UTC 2018-01-24 13:06:31

Audio
ID : 2
Format : AAC
Format/Info : Advanced Audio Codec
Format profile : LC
Codec ID : 40
Duration : 1h 44mn
Source duration : 1h 44mn
Bit rate mode : Variable
Bit rate : 126 Kbps
Maximum bit rate : 181 Kbps
Channel(s) : 2 channels
Channel positions : Front: L R
Sampling rate : 48.0 KHz
Compression mode : Lossy
Stream size : 93.9 MiB (5%)
Source stream size : 93.9 MiB (5%)
Title : Russian Stereo
Language : Russian
Encoded date : UTC 2018-01-24 13:06:21
Tagged date : UTC 2018-01-24 13:06:27

Menu #1
00:00:00.000 : Глава 1
00:06:24.208 : Глава 2
00:11:28.124 : Глава 3
00:18:03.707 : Глава 4
00:23:21.998 : Глава 5
00:29:11.081 : Глава 6
00:34:57.706 : Глава 7
00:41:44.039 : Глава 8
00:48:28.580 : Глава 9
00:56:09.996 : Глава 10
01:00:47.287 : Глава 11
01:07:32.745 : Глава 12
01:13:46.661 : Глава 13
01:18:53.036 : Глава 14
01:24:56.076 : Глава 15
01:33:19.202 : Глава 16

Menu #2
ID : 3
Codec ID : text
Duration : 1h 44mn
Language : English
Encoded date : UTC 2018-01-24 13:06:27
Tagged date : UTC 2018-01-24 13:06:27
00:00:00.000 : Глава 1
00:06:24.208 : Глава 2
00:11:28.124 : Глава 3
00:18:03.707 : Глава 4
00:23:21.998 : Глава 5
00:29:11.081 : Глава 6
00:34:57.706 : Глава 7
00:41:44.039 : Глава 8
00:48:28.580 : Глава 9
00:56:09.996 : Глава 10
01:00:47.287 : Глава 11
01:07:32.745 : Глава 12
01:13:46.661 : Глава 13
01:18:53.036 : Глава 14
01:24:56.076 : Глава 15
01:33:19.202 : Глава 16
Bit rate mode : VBR
x264 [info]: frame I:1212  Avg QP:10.20  size: 82698
x264 [info]: frame P:36469 Avg QP:12.92  size: 24713
x264 [info]: frame B:112189 Avg QP:14.99  size:  6393
x264 [info]: consecutive B-frames:  1.6%  3.0%  4.6% 62.0%  8.7% 16.8%  3.3%
x264 [info]: mb I  I16..4: 11.2% 67.5% 21.3%
x264 [info]: mb P  I16..4:  0.9%  6.5%  1.4%  P16..4: 29.4% 31.7% 22.4%  0.0%  0.0%    skip: 7.7%
x264 [info]: mb B  I16..4:  0.1%  0.6%  0.1%  B16..8: 30.6% 14.2%  4.7%  direct: 5.5%  skip:44.2%  L0:43.5% L1:42.0% BI:14.5%
x264 [info]: 8x8 transform intra:72.6% inter:58.9%
x264 [info]: coded y,uvDC,uvAC intra: 90.9% 90.7% 79.8% inter: 29.0% 23.2% 5.9%
x264 [info]: i16 v,h,dc,p: 33% 12%  7% 47%
x264 [info]: i8 v,h,dc,ddl,ddr,vr,hd,vl,hu: 13% 10%  8%  9% 12% 12% 12% 12% 13%
x264 [info]: i4 v,h,dc,ddl,ddr,vr,hd,vl,hu: 13% 10%  4%  9% 14% 14% 13% 11% 12%
x264 [info]: i8c dc,h,v,p: 49% 21% 18% 12%
x264 [info]: Weighted P-Frames: Y:2.1% UV:1.1%
x264 [info]: ref P L0: 51.1%  6.8% 18.0%  6.9%  5.7%  3.9%  3.6%  2.0%  2.0%  0.1%  0.0%
x264 [info]: ref B L0: 72.2% 12.9%  6.1%  3.1%  2.2%  1.9%  1.2%  0.5%
x264 [info]: ref B L1: 95.2%  4.8%
x264 [info]: kb/s:2199.65
Релиз подготовлен для просмотра на Apple TV, iPad, iPhone, iPod Touch.
Для просмотра данного релиза на компьютере с ОС Windows рекомендуется использовать VLC media player

Трекер:  [ 24-Янв-2018 16:42 ]

  

Скачать .torrent

Размер .torrent файла 34 KB


Размер: 1.7 GB
Хэш (hash) релиза: c43f2b912adb3cf8dbac579319ceaab44a59dff4

Еще никто не оставлял запись к записи скачать торрент [iPad] Субурбикон Suburbicon . Будь первым!

!Обратная связь