The Magic (Versione italiana) | Eps1 1911 Revolution | SEAL Team - Saison 1 complet

Скачать порно через торрент [Pantyamateur.com] MegaPack 2 x40 UnionPeer.org бесплатно онлайн HD качество

Скачать новое порно 2015, 2014 новинки через торрент UnionPeer.org

Порно торрент бесплатно ЮнионПир.орг

Статистика раздачи
Размер:  21.21 GB   |    Зарегистрирован:  6 месяцев   |    .torrent скачан:  208 раз   |   
Раздают:  1  
   
загрузка...
 
Автор Сообщение

Galfimbul

avatar Galfimbul


[Pantyamateur.com] MegaPack 2 x40 4k Год производства: 2017 г.
Жанр: Solo Fetish
Описание: http://pantyamateur.com/

Тип HD видео: 2160p
Качество видео: WEB-DL
Формат видео: MPEG
Видео: MPEG-4 Base Media / Version 2 3840x2160 25.00fps 15.0 Mbps
Аудио: AAC Stereo Variable 48.0 KHz
150217_PA_Neoni_La.hd.mp4
Format : MPEG-4
Format profile : Base Media / Version 2
Codec ID : mp42 (mp42/mp41)
File size : 425 MiB
Duration : 3mn 57s
Overall bit rate mode : Variable
Overall bit rate : 15.0 Mbps
Encoded date : UTC 2016-11-29 15:46:20
Tagged date : UTC 2016-11-29 15:47:04
©TIM : 00:00:00:00
©TSC : 25
©TSZ : 1

Video
ID : 1
Format : AVC
Format/Info : Advanced Video Codec
Format profile : [email protected]
Format settings, CABAC : Yes
Format settings, ReFrames : 3 frames
Codec ID : avc1
Codec ID/Info : Advanced Video Coding
Duration : 3mn 57s
Bit rate mode : Variable
Bit rate : 14.7 Mbps
Maximum bit rate : 18.0 Mbps
Width : 3 840 pixels
Height : 2 160 pixels
Display aspect ratio : 16:9
Frame rate mode : Constant
Frame rate : 25.000 fps
Standard : PAL
Color space : YUV
Chroma subsampling : 4:2:0
Bit depth : 8 bits
Scan type : Progressive
Bits/(Pixel*Frame) : 0.071
Stream size : 416 MiB (98%)
Language : English
Encoded date : UTC 2016-11-29 15:46:20
Tagged date : UTC 2016-11-29 15:46:20
Color range : Limited
Color primaries : BT.709
Transfer characteristics : BT.709
Matrix coefficients : BT.709

Audio
ID : 2
Format : AAC
Format/Info : Advanced Audio Codec
Format profile : LC
Codec ID : 40
Duration : 3mn 57s
Source duration : 3mn 57s
Bit rate mode : Variable
Bit rate : 317 Kbps
Maximum bit rate : 404 Kbps
Channel(s) : 2 channels
Channel positions : Front: L R
Sampling rate : 48.0 KHz
Frame rate : 46.875 fps (1024 spf)
Compression mode : Lossy
Stream size : 8.97 MiB (2%)
Source stream size : 8.97 MiB (2%)
Language : English
Encoded date : UTC 2016-11-29 15:46:20
Tagged date : UTC 2016-11-29 15:46:20


Трекер:  [ 15-Янв-2018 19:40 ]

  

Скачать .torrent

Размер .torrent файла 109 KB


Размер: 21.21 GB
Хэш (hash) релиза: 8cc51353d6036b898fd6d4dc1669336a71849b2d

Еще никто не оставлял запись к записи скачать торрент [Pantyamateur.com] MegaPack 2 x40 . Будь первым!

!Обратная связь