Corel Painter 2019 | Street Food Fighter Ep.4 | Magic Kaito

Скачать через торрент Вирион Фильм бесплатно в хорошем качестве torrent

Скачивайте на UnionPeer.org фильмы через торрент без регистрации. Новинки кино в хорошем качестве через торрент. На UnionPeer.org можно скачать через торрент фильмы 2014 и 2015 годов. Самые новые фильмы.

Скачать торрент Вирион бесплатно через .torrent фильм мультфильм сериал

Статистика раздачи
Размер:  1.27 GB   |    Зарегистрирован:  6 месяцев   |    .torrent скачан:  330 раз   |   
Раздают:  3  
   
загрузка...
 
Автор Сообщение

Galfimbul

avatar Galfimbul


Жанр: Ужасы, триллер, драма, фантастика
Режиссер: Алина Галимуллина, Тимур Романов
Актеры: Алина Галимуллина, Саид Гришин, Дмитрий Игнатьев, Диана Ахмедова, Тимур Мухаметшин, Алина Шарапова, Ильдар Ильдарханов, Лилия Калимуллина, Эрадж Шамс, Антон Носов

Описание:
Россия охвачена мутацией неизвестного вируса «Вирион», превращающего людей в бешеных зомби. Молодая девушка, ее брат подросток и их случайный попутчик покидают зараженную Казань в поисках безопасного места. Бензин на нуле, впереди пустынная дорога и толпы заразных. На что пойдут эти люди во имя выживания?


Производство: Россия
Продолжительность: 01:46:32
Субтитры: Отсутствуют
Возраст: 16+ (зрителям, достигшим 16 лет)

Качество видео: WEBRip
Видео: Xvid, 720x320 (2.25:1), ~1505 Kbps
Аудио: AC3, 2 ch, 192 Kbps
Проект является дебютным полнометражным фильмом для всех членов команды создателей.
Часть кинобюджета собиралась при помощи краудфандинговой площадки «Boomstarter».
На создание картины ушло 1,5 года.
General
Complete name : E:Вирион_(2016)_WEBRIP.avi
Format : AVI
Format/Info : Audio Video Interleave
File size : 1.27 GiB
Duration : 1 h 46 min
Overall bit rate : 1 704 kb/s
Writing application : VirtualDubModRus 1.5.10.2 (build 2542/release)
Writing library : VirtualDubMod build 2542/release

Video
ID : 0
Format : xvid
Codec ID : xvid
Duration : 1 h 46 min
Bit rate : 1 506 kb/s
Width : 720 pixels
Height : 320 pixels
Display aspect ratio : 2.25:1
Frame rate : 25.000 FPS
Bits/(Pixel*Frame) : 0.261
Stream size : 1.12 GiB (88%)

Audio
ID : 1
Format : AC-3
Format/Info : Audio Coding 3
Codec ID : 2000
Duration : 1 h 46 min
Bit rate mode : Constant
Bit rate : 192 kb/s
Channel(s) : 2 channels
Channel positions : Front: L R
Sampling rate : 48.0 kHz
Frame rate : 31.250 FPS (1536 SPF)
Bit depth : 16 bits
Compression mode : Lossy
Stream size : 146 MiB (11%)
Alignment : Aligned on interleaves
Interleave, duration : 160 ms (4.00 video frames)
Interleave, preload duratio : 640 ms
Service kind : Complete Main
Источник http://arutor.org

Трекер:  [ 14-Янв-2018 20:20 ]

  

Скачать .torrent

Размер .torrent файла 13 KB


Размер: 1.27 GB
Хэш (hash) релиза: 3f7ab9ad1569ea3117960f63bafccc2c5a2d4bd5
Подписка на обновления:

Еще никто не оставлял запись к записи скачать торрент Вирион . Будь первым!

!Обратная связь