George Ogilvie | Wind River | Изображения

Скачать через торрент Онихэй Onihei Фильм бесплатно в хорошем качестве torrent

Скачивайте на UnionPeer.org фильмы через торрент без регистрации. Новинки кино в хорошем качестве через торрент. На UnionPeer.org можно скачать через торрент фильмы 2014 и 2015 годов. Самые новые фильмы.

Скачать торрент Онихэй Onihei бесплатно через .torrent фильм мультфильм сериал

Статистика раздачи
Размер:  1.42 GB   |    Зарегистрирован:  7 месяцев   |    .torrent скачан:  28 раз   |   
Раздают:  1  
   
загрузка...
 
Автор Сообщение

Galfimbul

avatar Galfimbul


Онихэй
Оригинальное название: 鬼平
Английское название: Onihei
Период трансляции: c 10.01.2017 по 04.04.2017
Страна: Япония
Жанр: приключения, драма, исторический,самурайский боевик
Продолжительность: ТВ (13 эп.), 25 мин.Режиссер: Мия Сигэюки
Студия: Перевод: [YakuSub Studio]
Переводчик/Перевод песен/Оформление: Nika_Elrik
Редактор: Arashi-samaОписание: Онихэй, получивший при рождении имя Хэйдзо Хасэгава, в юности был ненадежным и распущенным богачом, от которого сложно было ждать великих свершений. Однако унаследовав титул отца и получив назначение в особую полицию, расследовавшую в Эдо грабежи и поджоги, у Хэйдзо довольно скоро проявились скрытые таланты.
Вступив в должность, он принялся наводить на улицах Эдо порядки силами опытных самураев, внушая преступникам страх и умело вербуя среди них информаторов. Именно тогда Хэйдзо и прозвали «Онихэем» (то есть «Демоном Хэйдзо»), причем сделали это его же враги. Онихэй, успешно расследовавший даже самые сложные дела, сумел поднять работу полиции на новую высоту, и его отряд самураев обрел славу чуть ли не элитных сил. Правда, столь смелые действия повлекли за собой ответное сопротивление со стороны преступников, которым вовсе не хотелось отвечать за свои злодеяния.
01. Tanbei of Chigashira
02. Honjo, Sakura Estate
03. The Evil Scent of the Hakubaiko
04. Blood Battle
05. Yanaka, Iroha Tea House
06. Secret Theft Tactics
07. Clay Pot Smashing Boy
08. Retreat of Okawa River
09. Crossroads
10. The End of Wasuke of Dojo
11. The Man of the Past
12. The Audacious Fellow
13. Kitsunebi
Качество видео: HDTVRip
Формат: MP4
Видео кодек: H.264
Аудио кодек: AAC
Видео: MPEG4 Video (H264) 480x272 23.976fps 511kbps
Аудио: AAC 48000Hz stereo 128kbps
General
Complete name : C:\Documents and Settings\BK201\Рабочий стол\Onihei\Onihei - 01.mp4
Format : MPEG-4
Format profile : Base Media
Codec ID : isom (isom/avc1)
File size : 112 MiB
Duration : 24 min
Overall bit rate mode : Variable
Overall bit rate : 644 kb/s
Encoded date : UTC 2017-12-19 17:13:54
Tagged date : UTC 2017-12-19 17:13:54

Video
ID : 1
Format : AVC
Format/Info : Advanced Video Codec
Format profile : [email protected]
Format settings, CABAC : Yes
Format settings, ReFrames : 2 frames
Codec ID : avc1
Codec ID/Info : Advanced Video Coding
Duration : 24 min
Bit rate : 512 kb/s
Maximum bit rate : 2 940 kb/s
Width : 480 pixels
Height : 272 pixels
Display aspect ratio : 16:9
Frame rate mode : Constant
Frame rate : 23.976 (24000/1001) FPS
Color space : YUV
Chroma subsampling : 4:2:0
Bit depth : 8 bits
Scan type : Progressive
Bits/(Pixel*Frame) : 0.164
Stream size : 88.8 MiB (79%)
Writing library : x264 core 65 r999kMod cc51047
Encoding settings : cabac=1 / ref=2 / deblock=1:-2:-1 / analyse=0x1:0x131 / me=umh / subme=7 / psy_rd=1.0:0.0 / mixed_ref=1 / me_range=16 / chroma_me=1 / trellis=2 / 8x8dct=0 / cqm=0 / deadzone=21,11 / chroma_qp_offset=-2 / threads=2 / thread_queue=2 / nr=0 / decimate=0 / mbaff=0 / bframes=3 / b_pyramid=0 / b_adapt=1 / b_bias=0 / direct=3 / wpredb=1 / keyint=250 / keyint_min=25 / scenecut=40(pre) / rc=2pass / bitrate=512 / ratetol=1.0 / qcomp=0.60 / qpmin=10 / qpmax=51 / qpstep=4 / cplxblur=20.0 / qblur=0.5 / ip_ratio=1.40 / pb_ratio=1.30 / aq=1:1.00
Encoded date : UTC 2017-12-19 17:13:54
Tagged date : UTC 2017-12-19 17:14:00

Audio
ID : 2
Format : AAC
Format/Info : Advanced Audio Codec
Format profile : LC
Codec ID : 40
Duration : 24 min
Bit rate mode : Variable
Bit rate : 129 kb/s
Maximum bit rate : 148 kb/s
Channel(s) : 2 channels
Channel positions : Front: L R
Sampling rate : 48.0 kHz
Frame rate : 46.875 FPS (1024 spf)
Compression mode : Lossy
Stream size : 22.3 MiB (20%)
Encoded date : UTC 2017-12-19 17:13:59
Tagged date : UTC 2017-12-19 17:14:00


Трекер:  [ 11-Янв-2018 07:12 ]

  

Скачать .torrent

Размер .torrent файла 15 KB


Размер: 1.42 GB
Хэш (hash) релиза: f341129095daee8594ede45edbc965e8b93a668b
Подписка на обновления:

Еще никто не оставлял запись к записи скачать торрент Онихэй Onihei . Будь первым!

!Обратная связь