Real Maid 17 | Introduction to the Design and Analysis of Algorithms, 2nd Edition | Hong Kong

Скачать через торрент музыку Eiga Koe no Katachi Форма голоса - 2016-2017 г., FLAC бесплатно без регистрации torrent

Статистика раздачи
Размер:  1.25 GB   |    Зарегистрирован:  6 месяцев   |    .torrent скачан:  24 раза   |   
Раздают:  2  
   
загрузка...
 
Автор Сообщение

Galfimbul

avatar Galfimbul


Форма голосаОбщие характеристики:
Производство:
Год выпуска: 2016-2017
Формат:
Частота: 44100Гц
Продолжительность: 69 треков - 4:34:07Альбомы:
<div class="sp-wrap">
<div class="sp-head folded">2016 - OST [PCCG-01550]</div>
<div class="sp-body">
<div class="post-box">
<div class="sp-wrap">
<div class="sp-head folded">CD 1</div>
<div class="sp-body">CD 1
Список треков:
01. tre [1:48]
02. inv (I.i) [1:23]
03. roh [1:46]
04. lvs [2:06]
05. inv (I.ii) [1:12]
06. rev [1:34]
07. inv (I.iii) [1:19]
08. lvs (var) [1:26]
09. thn [0:49]
10. lit [0:51]
11. bnw [0:50]
12. htb [1:02]
13. bll [1:02]
14. acc [1:38]
15. int [1:21]
16. flw [1:36]
17. mon [0:58]
18. maw [1:06]
19. inv (II.i) [1:03]
20. van [2:25]
21. inv (II.ii) [0:46]
22. inv (II.iii) [1:02]
23. sig [1:30]
24. aft [2:18]
25. inv (II.iv) [0:53]
26. flt [1:40]
27. prc [2:24]
28. pst [2:09]
29. inv (II.v) [3:22]
30. btf [1:05]
31. van (var) [1:32]
32. sus [2:13]
33. frc [1:31]
34. inv (II.vi) [1:32]
35. qut [1:52]
36. svg [2:02]
37. slt [1:59]
38. Invention No.1 C dur (LastPart) [1:28]
39. lit (var) [2:15]Official DR value: DR12
Проверка:
<div class="post-box">
<div class="sp-wrap">
<div class="sp-head folded">Открыть</div>
<div class="sp-body">
<div class="sp-wrap">
<div class="sp-head folded">ЕАС Лог</div>
<div class="sp-body">

Exact Audio Copy V1.3 from 2. September 2016

EAC extraction logfile from 27. December 2017, 16:29

- / Eiga Koe no Katachi - OST

Used drive : PLEXTOR CD-R PREMIUM2 Adapter: 1 ID: 1

Read mode : SecureUtilize accurate stream : YesDefeat audio cache : YesMake use of C2 pointers : No

Read offset correction : 30Overread into Lead-In and Lead-Out : YesFill up missing offset samples with silence : YesDelete leading and trailing silent blocks : NoNull samples used in CRC calculations : YesUsed interface : Native Win32 interface for Win NT & 2000Gap handling : Appended to previous track

Used output format : User Defined EncoderSelected bitrate : 1024 kBit/sQuality : HighAdd ID3 tag : NoCommand line compressor : C:\Program Files (x86)\Exact Audio Copy\Flac\flac.exeAdditional command line options : -V -8 -T "Genre=%genre%" -T "Artist=%artist%" -T "Title=%title%" -T "Album=%albumtitle%" -T "Date=%year%" -T "Tracknumber=%tracknr%" -T "Comment=%comment%" %source%

TOC of the extracted CD

Track | Start | Length | Start sector | End sector --------------------------------------------------------- 1 | 0:00.00 | 1:48.15 | 0 | 8114 2 | 1:48.15 | 1:23.17 | 8115 | 14356 3 | 3:11.32 | 1:45.69 | 14357 | 22300 4 | 4:57.26 | 2:05.54 | 22301 | 31729 5 | 7:03.05 | 1:12.22 | 31730 | 37151 6 | 8:15.27 | 1:33.74 | 37152 | 44200 7 | 9:49.26 | 1:19.26 | 44201 | 50151 8 | 11:08.52 | 1:25.39 | 50152 | 56565 9 | 12:34.16 | 0:48.61 | 56566 | 60226 10 | 13:23.02 | 0:50.40 | 60227 | 64016 11 | 14:13.42 | 0:50.31 | 64017 | 67797 12 | 15:03.73 | 1:02.07 | 67798 | 72454 13 | 16:06.05 | 1:01.65 | 72455 | 77094 14 | 17:07.70 | 1:37.55 | 77095 | 84424 15 | 18:45.50 | 1:21.27 | 84425 | 90526 16 | 20:07.02 | 1:35.66 | 90527 | 97717 17 | 21:42.68 | 0:58.31 | 97718 | 102098 18 | 22:41.24 | 1:06.08 | 102099 | 107056 19 | 23:47.32 | 1:02.74 | 107057 | 111780 20 | 24:50.31 | 2:25.34 | 111781 | 122689 21 | 27:15.65 | 0:46.20 | 122690 | 126159 22 | 28:02.10 | 1:01.45 | 126160 | 130779 23 | 29:03.55 | 1:29.70 | 130780 | 137524 24 | 30:33.50 | 2:17.71 | 137525 | 147870 25 | 32:51.46 | 0:53.25 | 147871 | 151870 26 | 33:44.71 | 1:40.20 | 151871 | 159390 27 | 35:25.16 | 2:24.19 | 159391 | 170209 28 | 37:49.35 | 2:09.25 | 170210 | 179909 29 | 39:58.60 | 3:21.68 | 179910 | 195052 30 | 43:20.53 | 1:04.45 | 195053 | 199897 31 | 44:25.23 | 1:32.29 | 199898 | 206826 32 | 45:57.52 | 2:13.17 | 206827 | 216818 33 | 48:10.69 | 1:30.40 | 216819 | 223608 34 | 49:41.34 | 1:31.42 | 223609 | 230475 35 | 51:13.01 | 1:52.01 | 230476 | 238876 36 | 53:05.02 | 2:02.17 | 238877 | 248043 37 | 55:07.19 | 1:58.43 | 248044 | 256936 38 | 57:05.62 | 1:28.13 | 256937 | 263549 39 | 58:34.00 | 2:14.59 | 263550 | 273658

Track 1

Filename D:\Work\RIPs\01 - tre.wav

Pre-gap length 0:00:02.00

Peak level 53.7 % Extraction speed 6.2 X Track quality 99.9 % Test CRC 3FB5C3F0 Copy CRC 3FB5C3F0 Accurately ripped (confidence 10) [5F7A8A86] (AR v2) Copy OK

Track 2

Filename D:\Work\RIPs\02 - inv (I.i).wav

Peak level 62.8 % Extraction speed 8.2 X Track quality 100.0 % Test CRC 21111F53 Copy CRC 21111F53 Accurately ripped (confidence 10) [1C54082A] (AR v2) Copy OK

Track 3

Filename D:\Work\RIPs\03 - roh.wav

Peak level 83.6 % Extraction speed 6.6 X Track quality 99.8 % Test CRC BE26C9F8 Copy CRC BE26C9F8 Accurately ripped (confidence 10) [2B1A7581] (AR v2) Copy OK

Track 4

Filename D:\Work\RIPs\04 - lvs.wav

Peak level 64.0 % Extraction speed 9.0 X Track quality 100.0 % Test CRC 4A1BFD53 Copy CRC 4A1BFD53 Accurately ripped (confidence 10) [C516435C] (AR v2) Copy OK

Track 5

Filename D:\Work\RIPs\05 - inv (I.ii).wav

Pre-gap length 0:00:01.08

Peak level 46.8 % Extraction speed 8.6 X Track quality 100.0 % Test CRC 94933891 Copy CRC 94933891 Accurately ripped (confidence 10) [FED4A396] (AR v2) Copy OK

Track 6

Filename D:\Work\RIPs\06 - rev.wav

Peak level 94.9 % Extraction speed 9.2 X Track quality 100.0 % Test CRC 2398385A Copy CRC 2398385A Accurately ripped (confidence 10) [4D1A09CB] (AR v2) Copy OK

Track 7

Filename D:\Work\RIPs\07 - inv (I.iii).wav

Peak level 73.3 % Extraction speed 6.7 X Track quality 99.8 % Test CRC 8472BC17 Copy CRC 8472BC17 Accurately ripped (confidence 10) [19D41B97] (AR v2) Copy OK

Track 8

Filename D:\Work\RIPs\08 - lvs (var).wav

Peak level 67.5 % Extraction speed 9.4 X Track quality 100.0 % Test CRC 5D33D604 Copy CRC 5D33D604 Accurately ripped (confidence 10) [93F7FA3E] (AR v2) Copy OK

Track 9

Filename D:\Work\RIPs\09 - thn.wav

Peak level 94.7 % Extraction speed 5.6 X Track quality 99.7 % Test CRC 4EDB9E89 Copy CRC 4EDB9E89 Accurately ripped (confidence 10) [12D8B9FA] (AR v2) Copy OK

Track 10

Filename D:\Work\RIPs\10 - lit.wav

Peak level 94.6 % Extraction speed 8.7 X Track quality 100.0 % Test CRC CDB4D0C6 Copy CRC CDB4D0C6 Accurately ripped (confidence 10) [BB2847CF] (AR v2) Copy OK

Track 11

Filename D:\Work\RIPs\11 - bnw.wav

Pre-gap length 0:00:02.07

Peak level 83.3 % Extraction speed 8.7 X Track quality 100.0 % Test CRC 2596A24C Copy CRC 2596A24C Accurately ripped (confidence 10) [9473A933] (AR v2) Copy OK

Track 12

Filename D:\Work\RIPs\12 - htb.wav

Pre-gap length 0:00:01.56

Peak level 56.9 % Extraction speed 6.5 X Track quality 99.8 % Test CRC 8ABEC217 Copy CRC 8ABEC217 Accurately ripped (confidence 10) [84A0060C] (AR v2) Copy OK

Track 13

Filename D:\Work\RIPs\13 - bll.wav

Peak level 68.8 % Extraction speed 9.5 X Track quality 100.0 % Test CRC F0832D0A Copy CRC F0832D0A Accurately ripped (confidence 10) [CA4FC711] (AR v2) Copy OK

Track 14

Filename D:\Work\RIPs\14 - acc.wav

Peak level 98.7 % Extraction speed 10.4 X Track quality 100.0 % Test CRC BF7A0D5A Copy CRC BF7A0D5A Accurately ripped (confidence 10) [ADF08477] (AR v2) Copy OK

Track 15

Filename D:\Work\RIPs\15 - int.wav

Pre-gap length 0:00:02.05

Peak level 88.3 % Extraction speed 9.9 X Track quality 100.0 % Test CRC 70C74F13 Copy CRC 70C74F13 Accurately ripped (confidence 10) [C085598E] (AR v2) Copy OK

Track 16

Filename D:\Work\RIPs\16 - flw.wav

Pre-gap length 0:00:01.34

Peak level 76.7 % Extraction speed 10.8 X Track quality 100.0 % Test CRC BA6AC3EB Copy CRC BA6AC3EB Accurately ripped (confidence 10) [A84CBF78] (AR v2) Copy OK

Track 17

Filename D:\Work\RIPs\17 - mon.wav

Pre-gap length 0:00:03.52

Peak level 65.6 % Extraction speed 6.7 X Track quality 99.8 % Test CRC 0E42AF37 Copy CRC 0E42AF37 Accurately ripped (confidence 10) [D3E467A2] (AR v2) Copy OK

Track 18

Filename D:\Work\RIPs\18 - maw.wav

Peak level 42.9 % Extraction speed 9.8 X Track quality 100.0 % Test CRC 88DCF7E1 Copy CRC 88DCF7E1 Accurately ripped (confidence 10) [FE5C3514] (AR v2) Copy OK

Track 19

Filename D:\Work\RIPs\19 - inv (II.i).wav

Peak level 48.4 % Extraction speed 10.3 X Track quality 100.0 % Test CRC 1B571F62 Copy CRC 1B571F62 Accurately ripped (confidence 10) [6C54A9F7] (AR v2) Copy OK

Track 20

Filename D:\Work\RIPs\20 - van.wav

Peak level 95.5 % Extraction speed 11.7 X Track quality 100.0 % Test CRC B6B8A222 Copy CRC B6B8A222 Accurately ripped (confidence 10) [36A88CBA] (AR v2) Copy OK

Track 21

Filename D:\Work\RIPs\21 - inv (II.ii).wav

Pre-gap length 0:00:02.03

Peak level 83.5 % Extraction speed 9.5 X Track quality 100.0 % Test CRC FB7AF9D1 Copy CRC FB7AF9D1 Accurately ripped (confidence 10) [9F1029FC] (AR v2) Copy OK

Track 22

Filename D:\Work\RIPs\22 - inv (II.iii).wav

Peak level 72.6 % Extraction speed 10.4 X Track quality 100.0 % Test CRC B44CBDDE Copy CRC B44CBDDE Accurately ripped (confidence 10) [471EB4DD] (AR v2) Copy OK

Track 23

Filename D:\Work\RIPs\23 - sig.wav

Peak level 70.4 % Extraction speed 8.4 X Track quality 99.8 % Test CRC A41CFAD7 Copy CRC A41CFAD7 Accurately ripped (confidence 10) [8EFED944] (AR v2) Copy OK

Track 24

Filename D:\Work\RIPs\24 - aft.wav

Peak level 98.6 % Extraction speed 12.5 X Track quality 100.0 % Test CRC 203BCFF7 Copy CRC 203BCFF7 Accurately ripped (confidence 10) [EA647639] (AR v2) Copy OK

Track 25

Filename D:\Work\RIPs\25 - inv (II.iv).wav

Pre-gap length 0:00:01.24

Peak level 85.7 % Extraction speed 10.5 X Track quality 100.0 % Test CRC 12D0A131 Copy CRC 12D0A131 Accurately ripped (confidence 10) [A80DC6B4] (AR v2) Copy OK

Track 26

Filename D:\Work\RIPs\26 - flt.wav

Peak level 71.9 % Extraction speed 8.9 X Track quality 99.8 % Test CRC BB460AA2 Copy CRC BB460AA2 Accurately ripped (confidence 10) [56B7D16E] (AR v2) Copy OK

Track 27

Filename D:\Work\RIPs\27 - prc.wav

Peak level 86.6 % Extraction speed 13.1 X Track quality 100.0 % Test CRC B0439CE1 Copy CRC B0439CE1 Accurately ripped (confidence 10) [C4F15A6B] (AR v2) Copy OK

Track 28

Filename D:\Work\RIPs\28 - pst.wav

Peak level 87.5 % Extraction speed 13.1 X Track quality 100.0 % Test CRC 032680BE Copy CRC 032680BE Accurately ripped (confidence 10) [061791BC] (AR v2) Copy OK

Track 29

Filename D:\Work\RIPs\29 - inv (II.v).wav

Peak level 92.6 % Extraction speed 14.0 X Track quality 100.0 % Test CRC 9D6DECCE Copy CRC 9D6DECCE Accurately ripped (confidence 10) [FF3DB758] (AR v2) Copy OK

Track 30

Filename D:\Work\RIPs\30 - btf.wav

Pre-gap length 0:00:01.65

Peak level 92.9 % Extraction speed 11.3 X Track quality 100.0 % Test CRC 0AF634BB Copy CRC 0AF634BB Accurately ripped (confidence 10) [74BB87FF] (AR v2) Copy OK

Track 31

Filename D:\Work\RIPs\31 - van (var).wav

Peak level 97.8 % Extraction speed 12.5 X Track quality 100.0 % Test CRC 1254AE13 Copy CRC 1254AE13 Accurately ripped (confidence 10) [A4E8B657] (AR v2) Copy OK

Track 32

Filename D:\Work\RIPs\32 - sus.wav

Peak level 88.7 % Extraction speed 13.4 X Track quality 100.0 % Test CRC 81CE98FF Copy CRC 81CE98FF Accurately ripped (confidence 10) [022AA86A] (AR v2) Copy OK

Track 33

Filename D:\Work\RIPs\33 - frc.wav

Peak level 98.6 % Extraction speed 12.5 X Track quality 100.0 % Test CRC 6DB7E2D1 Copy CRC 6DB7E2D1 Accurately ripped (confidence 10) [A66C20D6] (AR v2) Copy OK

Track 34

Filename D:\Work\RIPs\34 - inv (II.vi).wav

Peak level 68.7 % Extraction speed 12.5 X Track quality 100.0 % Test CRC 4875F474 Copy CRC 4875F474 Accurately ripped (confidence 10) [70F14208] (AR v2) Copy OK

Track 35

Filename D:\Work\RIPs\35 - qut.wav

Pre-gap length 0:00:00.40

Peak level 85.7 % Extraction speed 13.2 X Track quality 100.0 % Test CRC 621580F7 Copy CRC 621580F7 Accurately ripped (confidence 10) [F413D466] (AR v2) Copy OK

Track 36

Filename D:\Work\RIPs\36 - svg.wav

Pre-gap length 0:00:01.21

Peak level 87.0 % Extraction speed 13.4 X Track quality 100.0 % Test CRC 271DA27A Copy CRC 271DA27A Accurately ripped (confidence 10) [2E60A6A6] (AR v2) Copy OK

Track 37

Filename D:\Work\RIPs\37 - slt.wav

Pre-gap length 0:00:05.37

Peak level 98.7 % Extraction speed 13.3 X Track quality 100.0 % Test CRC CF1B6E9B Copy CRC CF1B6E9B Accurately ripped (confidence 10) [62D0F8B2] (AR v2) Copy OK

Track 38

Filename D:\Work\RIPs\38 - Invention No.1 C dur (LastPart).wav

Peak level 82.9 % Extraction speed 12.6 X Track quality 100.0 % Test CRC 3A32E55B Copy CRC 3A32E55B Accurately ripped (confidence 10) [095F7F1E] (AR v2) Copy OK

Track 39

Filename D:\Work\RIPs\39 - lit (var).wav

Pre-gap length 0:00:07.72

Peak level 99.4 % Extraction speed 10.6 X Track quality 99.9 % Test CRC 65ECA831 Copy CRC 65ECA831 Accurately ripped (confidence 10) [8AFC9258] (AR v2) Copy OK

All tracks accurately ripped

No errors occurred

End of status report

---- CUETools DB Plugin V2.1.6

[CTDB TOCID: 6v6FTM5j8dp1m1X026xll4Sbo5o-] foundSubmit result: already submittedTrack | CTDB Status 1 | (115/115) Accurately ripped 2 | (115/115) Accurately ripped 3 | (115/115) Accurately ripped 4 | (115/115) Accurately ripped 5 | (115/115) Accurately ripped 6 | (115/115) Accurately ripped 7 | (115/115) Accurately ripped 8 | (115/115) Accurately ripped 9 | (114/115) Accurately ripped 10 | (115/115) Accurately ripped 11 | (115/115) Accurately ripped 12 | (115/115) Accurately ripped 13 | (115/115) Accurately ripped 14 | (115/115) Accurately ripped 15 | (115/115) Accurately ripped 16 | (114/115) Accurately ripped 17 | (114/115) Accurately ripped 18 | (114/115) Accurately ripped 19 | (114/115) Accurately ripped 20 | (114/115) Accurately ripped 21 | (114/115) Accurately ripped 22 | (114/115) Accurately ripped 23 | (114/115) Accurately ripped 24 | (114/115) Accurately ripped 25 | (114/115) Accurately ripped 26 | (114/115) Accurately ripped 27 | (114/115) Accurately ripped 28 | (114/115) Accurately ripped 29 | (114/115) Accurately ripped 30 | (114/115) Accurately ripped 31 | (114/115) Accurately ripped 32 | (114/115) Accurately ripped 33 | (114/115) Accurately ripped 34 | (114/115) Accurately ripped 35 | (113/115) Accurately ripped 36 | (114/115) Accurately ripped 37 | (114/115) Accurately ripped 38 | (114/115) Accurately ripped 39 | (114/115) Accurately ripped

==== Log checksum AD92CD62ADF6C07253F36F021F6AF5800B70E572051DE5D75FEEE0C8CA3FB2F6 ====
REM GENRE AnimeREM DATE 2016REM DISCID 430E4027REM COMMENT "ExactAudioCopy v1.3"PERFORMER ""TITLE "Eiga Koe no Katachi - OST"REM COMPOSER ""FILE "01 - tre.wav" WAVE TRACK 01 AUDIO TITLE "tre" PERFORMER "Kensuke Ushio" REM COMPOSER "" INDEX 01 00:00:00FILE "02 - inv (I.i).wav" WAVE TRACK 02 AUDIO TITLE "inv (I.i)" PERFORMER "Kensuke Ushio" REM COMPOSER "" INDEX 01 00:00:00FILE "03 - roh.wav" WAVE TRACK 03 AUDIO TITLE "roh" PERFORMER "Kensuke Ushio" REM COMPOSER "" INDEX 01 00:00:00FILE "04 - lvs.wav" WAVE TRACK 04 AUDIO TITLE "lvs" PERFORMER "Kensuke Ushio" REM COMPOSER "" INDEX 01 00:00:00 TRACK 05 AUDIO TITLE "inv (I.ii)" PERFORMER "Kensuke Ushio" REM COMPOSER "" INDEX 00 02:04:46FILE "05 - inv (I.ii).wav" WAVE INDEX 01 00:00:00FILE "06 - rev.wav" WAVE TRACK 06 AUDIO TITLE "rev" PERFORMER "Kensuke Ushio" REM COMPOSER "" INDEX 01 00:00:00FILE "07 - inv (I.iii).wav" WAVE TRACK 07 AUDIO TITLE "inv (I.iii)" PERFORMER "Kensuke Ushio" REM COMPOSER "" INDEX 01 00:00:00FILE "08 - lvs (var).wav" WAVE TRACK 08 AUDIO TITLE "lvs (var)" PERFORMER "Kensuke Ushio" REM COMPOSER "" INDEX 01 00:00:00FILE "09 - thn.wav" WAVE TRACK 09 AUDIO TITLE "thn" PERFORMER "Kensuke Ushio" REM COMPOSER "" INDEX 01 00:00:00FILE "10 - lit.wav" WAVE TRACK 10 AUDIO TITLE "lit" PERFORMER "Kensuke Ushio" REM COMPOSER "" INDEX 01 00:00:00 TRACK 11 AUDIO TITLE "bnw" PERFORMER "Kensuke Ushio" REM COMPOSER "" INDEX 00 00:48:33FILE "11 - bnw.wav" WAVE INDEX 01 00:00:00 TRACK 12 AUDIO TITLE "htb" PERFORMER "Kensuke Ushio" REM COMPOSER "" INDEX 00 00:48:50FILE "12 - htb.wav" WAVE INDEX 01 00:00:00FILE "13 - bll.wav" WAVE TRACK 13 AUDIO TITLE "bll" PERFORMER "Kensuke Ushio" REM COMPOSER "" INDEX 01 00:00:00FILE "14 - acc.wav" WAVE TRACK 14 AUDIO TITLE "acc" PERFORMER "Kensuke Ushio" REM COMPOSER "" INDEX 01 00:00:00 TRACK 15 AUDIO TITLE "int" PERFORMER "Kensuke Ushio" REM COMPOSER "" INDEX 00 01:35:50FILE "15 - int.wav" WAVE INDEX 01 00:00:00 TRACK 16 AUDIO TITLE "flw" PERFORMER "Kensuke Ushio" REM COMPOSER "" INDEX 00 01:19:68FILE "16 - flw.wav" WAVE INDEX 01 00:00:00 TRACK 17 AUDIO TITLE "mon" PERFORMER "Kensuke Ushio" REM COMPOSER "" INDEX 00 01:32:14FILE "17 - mon.wav" WAVE INDEX 01 00:00:00FILE "18 - maw.wav" WAVE TRACK 18 AUDIO TITLE "maw" PERFORMER "Kensuke Ushio" REM COMPOSER "" INDEX 01 00:00:00FILE "19 - inv (II.i).wav" WAVE TRACK 19 AUDIO TITLE "inv (II.i)" PERFORMER "Kensuke Ushio" REM COMPOSER "" INDEX 01 00:00:00FILE "20 - van.wav" WAVE TRACK 20 AUDIO TITLE "van" PERFORMER "Kensuke Ushio" REM COMPOSER "" INDEX 01 00:00:00 TRACK 21 AUDIO TITLE "inv (II.ii)" PERFORMER "Kensuke Ushio" REM COMPOSER "" INDEX 00 02:23:31FILE "21 - inv (II.ii).wav" WAVE INDEX 01 00:00:00FILE "22 - inv (II.iii).wav" WAVE TRACK 22 AUDIO TITLE "inv (II.iii)" PERFORMER "Kensuke Ushio" REM COMPOSER "" INDEX 01 00:00:00FILE "23 - sig.wav" WAVE TRACK 23 AUDIO TITLE "sig" PERFORMER "Kensuke Ushio" REM COMPOSER "" INDEX 01 00:00:00FILE "24 - aft.wav" WAVE TRACK 24 AUDIO TITLE "aft" PERFORMER "Kensuke Ushio" REM COMPOSER "" INDEX 01 00:00:00 TRACK 25 AUDIO TITLE "inv (II.iv)" PERFORMER "Kensuke Ushio" REM COMPOSER "" INDEX 00 02:16:47FILE "25 - inv (II.iv).wav" WAVE INDEX 01 00:00:00FILE "26 - flt.wav" WAVE TRACK 26 AUDIO TITLE "flt" PERFORMER "Kensuke Ushio" REM COMPOSER "" INDEX 01 00:00:00FILE "27 - prc.wav" WAVE TRACK 27 AUDIO TITLE "prc" PERFORMER "Kensuke Ushio" REM COMPOSER "" INDEX 01 00:00:00FILE "28 - pst.wav" WAVE TRACK 28 AUDIO TITLE "pst" PERFORMER "Kensuke Ushio" REM COMPOSER "" INDEX 01 00:00:00FILE "29 - inv (II.v).wav" WAVE TRACK 29 AUDIO TITLE "inv (II.v)" PERFORMER "Kensuke Ushio" REM COMPOSER "" INDEX 01 00:00:00 TRACK 30 AUDIO TITLE "btf" PERFORMER "Kensuke Ushio" REM COMPOSER "" INDEX 00 03:20:03FILE "30 - btf.wav" WAVE INDEX 01 00:00:00FILE "31 - van (var).wav" WAVE TRACK 31 AUDIO TITLE "van (var)" PERFORMER "Kensuke Ushio" REM COMPOSER "" INDEX 01 00:00:00FILE "32 - sus.wav" WAVE TRACK 32 AUDIO TITLE "sus" PERFORMER "Kensuke Ushio" REM COMPOSER "" INDEX 01 00:00:00FILE "33 - frc.wav" WAVE TRACK 33 AUDIO TITLE "frc" PERFORMER "Kensuke Ushio" REM COMPOSER "" INDEX 01 00:00:00FILE "34 - inv (II.vi).wav" WAVE TRACK 34 AUDIO TITLE "inv (II.vi)" PERFORMER "Kensuke Ushio" REM COMPOSER "" INDEX 01 00:00:00 TRACK 35 AUDIO TITLE "qut" PERFORMER "Kensuke Ushio" REM COMPOSER "" INDEX 00 01:31:02FILE "35 - qut.wav" WAVE INDEX 01 00:00:00 TRACK 36 AUDIO TITLE "svg" PERFORMER "Kensuke Ushio" REM COMPOSER "" INDEX 00 01:50:55FILE "36 - svg.wav" WAVE INDEX 01 00:00:00 TRACK 37 AUDIO TITLE "slt" PERFORMER "Kensuke Ushio" REM COMPOSER "" INDEX 00 01:56:55FILE "37 - slt.wav" WAVE INDEX 01 00:00:00FILE "38 - Invention No.1 C dur (LastPart).wav" WAVE TRACK 38 AUDIO TITLE "Invention No.1 C dur (LastPart)" PERFORMER "J.S. Bach" REM COMPOSER "" INDEX 01 00:00:00 TRACK 39 AUDIO TITLE "lit (var)" PERFORMER "Kensuke Ushio" REM COMPOSER "" INDEX 00 01:20:16FILE "39 - lit (var).wav" WAVE INDEX 01 00:00:00
</div>
</div>
</div>
</div>
</div>
CD 2
Список треков:
01. heart beat [1:39]
02. round [1:38]
03. into the sparkle [3:25]
04. black and white [2:44]
05. (i can) say nothing [2:23]
06. night lights [1:36]
07. blue blur [1:36]
08. vignette [2:33]
09. narrow road [3:54]
10. welcome to the park [0:58]
11. is your hair real? [1:55]
12. laser [4:43]
13. macchina eko [1:41]
14. green [2:39]
15. sunlight [3:24]
16. sketch no.19 [1:45]
17. sustain [2:08]
18. no one here [3:37]
19. your silent portrait [1:28]
20. fractal [5:45]
21. flare [2:18]
22. speed of youth [4:43]Official DR value: DR10
Проверка:
<div class="post-box">
<div class="sp-wrap">
<div class="sp-head folded">Открыть</div>
<div class="sp-body">
<div class="sp-wrap">
<div class="sp-head folded">ЕАС Лог</div>
<div class="sp-body">

Exact Audio Copy V1.3 from 2. September 2016

EAC extraction logfile from 27. December 2017, 18:19

Kensuke Ushio / Eiga Koe no Katachi - OST

Used drive : PLEXTOR CD-R PREMIUM2 Adapter: 1 ID: 1

Read mode : SecureUtilize accurate stream : YesDefeat audio cache : YesMake use of C2 pointers : No

Read offset correction : 30Overread into Lead-In and Lead-Out : YesFill up missing offset samples with silence : YesDelete leading and trailing silent blocks : NoNull samples used in CRC calculations : YesUsed interface : Native Win32 interface for Win NT & 2000Gap handling : Appended to previous track

Used output format : User Defined EncoderSelected bitrate : 1024 kBit/sQuality : HighAdd ID3 tag : NoCommand line compressor : C:\Program Files (x86)\Exact Audio Copy\Flac\flac.exeAdditional command line options : -V -8 -T "Genre=%genre%" -T "Artist=%artist%" -T "Title=%title%" -T "Album=%albumtitle%" -T "Date=%year%" -T "Tracknumber=%tracknr%" -T "Comment=%comment%" %source%

TOC of the extracted CD

Track | Start | Length | Start sector | End sector --------------------------------------------------------- 1 | 0:00.00 | 1:39.25 | 0 | 7449 2 | 1:39.25 | 1:38.02 | 7450 | 14801 3 | 3:17.27 | 3:25.06 | 14802 | 30182 4 | 6:42.33 | 2:44.08 | 30183 | 42490 5 | 9:26.41 | 2:22.41 | 42491 | 53181 6 | 11:49.07 | 1:36.15 | 53182 | 60396 7 | 13:25.22 | 1:35.66 | 60397 | 67587 8 | 15:01.13 | 2:33.21 | 67588 | 79083 9 | 17:34.34 | 3:53.50 | 79084 | 96608 10 | 21:28.09 | 0:58.21 | 96609 | 100979 11 | 22:26.30 | 1:55.22 | 100980 | 109626 12 | 24:21.52 | 4:43.08 | 109627 | 130859 13 | 29:04.60 | 1:40.72 | 130860 | 138431 14 | 30:45.57 | 2:38.48 | 138432 | 150329 15 | 33:24.30 | 3:23.50 | 150330 | 165604 16 | 36:48.05 | 1:44.41 | 165605 | 173445 17 | 38:32.46 | 2:07.41 | 173446 | 183011 18 | 40:40.12 | 3:36.57 | 183012 | 199268 19 | 44:16.69 | 1:27.51 | 199269 | 205844 20 | 45:44.45 | 5:44.66 | 205845 | 231710 21 | 51:29.36 | 2:18.26 | 231711 | 242086 22 | 53:47.62 | 4:43.05 | 242087 | 263316

Track 1

Filename D:\Work\RIPs\01 - heart beat.wav

Pre-gap length 0:00:02.00

Peak level 80.5 % Extraction speed 7.9 X Track quality 100.0 % Test CRC 59FFD44F Copy CRC 59FFD44F Accurately ripped (confidence 11) [7658CAE4] (AR v2) Copy OK

Track 2

Filename D:\Work\RIPs\02 - round.wav

Peak level 55.1 % Extraction speed 8.2 X Track quality 100.0 % Test CRC 2BBA4608 Copy CRC 2BBA4608 Accurately ripped (confidence 11) [C2106503] (AR v2) Copy OK

Track 3

Filename D:\Work\RIPs\03 - into the sparkle.wav

Peak level 73.4 % Extraction speed 9.3 X Track quality 100.0 % Test CRC AE57D3CF Copy CRC AE57D3CF Accurately ripped (confidence 11) [52EB6836] (AR v2) Copy OK

Track 4

Filename D:\Work\RIPs\04 - black and white.wav

Peak level 100.0 % Extraction speed 9.6 X Track quality 100.0 % Test CRC CB323D3B Copy CRC CB323D3B Accurately ripped (confidence 11) [AEC170F8] (AR v2) Copy OK

Track 5

Filename D:\Work\RIPs\05 - (i can) say nothing.wav

Peak level 99.4 % Extraction speed 10.0 X Track quality 100.0 % Test CRC C7B5A27D Copy CRC C7B5A27D Accurately ripped (confidence 11) [17437E82] (AR v2) Copy OK

Track 6

Filename D:\Work\RIPs\06 - night lights.wav

Peak level 99.2 % Extraction speed 9.9 X Track quality 100.0 % Test CRC DEF90695 Copy CRC DEF90695 Accurately ripped (confidence 11) [FA32E45D] (AR v2) Copy OK

Track 7

Filename D:\Work\RIPs\07 - blue blur.wav

Peak level 98.3 % Extraction speed 10.1 X Track quality 100.0 % Test CRC 3908CAAA Copy CRC 3908CAAA Accurately ripped (confidence 11) [3B2E958A] (AR v2) Copy OK

Track 8

Filename D:\Work\RIPs\08 - vignette.wav

Peak level 98.5 % Extraction speed 10.8 X Track quality 100.0 % Test CRC 9E4B6EC1 Copy CRC 9E4B6EC1 Accurately ripped (confidence 11) [7BE0FF47] (AR v2) Copy OK

Track 9

Filename D:\Work\RIPs\09 - narrow road.wav

Peak level 98.8 % Extraction speed 11.7 X Track quality 100.0 % Test CRC D02B840E Copy CRC D02B840E Accurately ripped (confidence 11) [3575BFE5] (AR v2) Copy OK

Track 10

Filename D:\Work\RIPs\10 - welcome to the park.wav

Pre-gap length 0:00:02.20

Peak level 76.2 % Extraction speed 9.7 X Track quality 100.0 % Test CRC FD341155 Copy CRC FD341155 Accurately ripped (confidence 11) [DFFBC37C] (AR v2) Copy OK

Track 11

Filename D:\Work\RIPs\11 - is your hair real.wav

Peak level 79.9 % Extraction speed 11.3 X Track quality 100.0 % Test CRC 8ECD9744 Copy CRC 8ECD9744 Accurately ripped (confidence 11) [0661CD64] (AR v2) Copy OK

Track 12

Filename D:\Work\RIPs\12 - laser.wav

Peak level 92.0 % Extraction speed 12.8 X Track quality 100.0 % Test CRC D8C05C1C Copy CRC D8C05C1C Accurately ripped (confidence 11) [E7EE6D31] (AR v2) Copy OK

Track 13

Filename D:\Work\RIPs\13 - macchina eko.wav

Pre-gap length 0:00:02.46

Peak level 98.8 % Extraction speed 11.7 X Track quality 100.0 % Test CRC DF5DE947 Copy CRC DF5DE947 Accurately ripped (confidence 11) [AE30C412] (AR v2) Copy OK

Track 14

Filename D:\Work\RIPs\14 - green.wav

Peak level 100.0 % Extraction speed 12.7 X Track quality 100.0 % Test CRC D4847278 Copy CRC D4847278 Accurately ripped (confidence 11) [1155D516] (AR v2) Copy OK

Track 15

Filename D:\Work\RIPs\15 - sunlight.wav

Pre-gap length 0:00:01.69

Peak level 98.7 % Extraction speed 13.4 X Track quality 100.0 % Test CRC A39B70E9 Copy CRC A39B70E9 Accurately ripped (confidence 11) [B02C98E3] (AR v2) Copy OK

Track 16

Filename D:\Work\RIPs\16 - sketch no.19.wav

Pre-gap length 0:00:05.53

Peak level 60.8 % Extraction speed 9.3 X Track quality 99.8 % Test CRC BCC84ED1 Copy CRC BCC84ED1 Accurately ripped (confidence 11) [1E86A6C7] (AR v2) Copy OK

Track 17

Filename D:\Work\RIPs\17 - sustain.wav

Pre-gap length 0:00:04.37

Peak level 99.0 % Extraction speed 12.9 X Track quality 100.0 % Test CRC 23FBC488 Copy CRC 23FBC488 Accurately ripped (confidence 11) [ED7E287C] (AR v2) Copy OK

Track 18

Filename D:\Work\RIPs\18 - no one here.wav

Pre-gap length 0:00:02.73

Peak level 97.7 % Extraction speed 11.8 X Track quality 99.9 % Test CRC 35879102 Copy CRC 35879102 Accurately ripped (confidence 11) [0624369C] (AR v2) Copy OK

Track 19

Filename D:\Work\RIPs\19 - your silent portrait.wav

Pre-gap length 0:00:01.69

Peak level 98.2 % Extraction speed 12.3 X Track quality 100.0 % Test CRC B9796AD5 Copy CRC B9796AD5 Accurately ripped (confidence 11) [05A56B1B] (AR v2) Copy OK

Track 20

Filename D:\Work\RIPs\20 - fractal.wav

Peak level 100.0 % Extraction speed 14.9 X Track quality 100.0 % Test CRC 313C3A38 Copy CRC 313C3A38 Accurately ripped (confidence 11) [1881A5C8] (AR v2) Copy OK

Track 21

Filename D:\Work\RIPs\21 - flare.wav

Pre-gap length 0:00:00.08

Peak level 98.4 % Extraction speed 13.6 X Track quality 100.0 % Test CRC BCB00C42 Copy CRC BCB00C42 Accurately ripped (confidence 11) [A4CEBDF9] (AR v2) Copy OK

Track 22

Filename D:\Work\RIPs\22 - speed of youth.wav

Pre-gap length 0:00:02.58

Peak level 100.0 % Extraction speed 14.8 X Track quality 100.0 % Test CRC 4CFB95C0 Copy CRC 4CFB95C0 Accurately ripped (confidence 10) [7946D8DD] (AR v2) Copy OK

All tracks accurately ripped

No errors occurred

End of status report

---- CUETools DB Plugin V2.1.6

[CTDB TOCID: e5DElhOs7Eo_8NhGKXql4RsIp4Y-] foundSubmit result: e5DElhOs7Eo_8NhGKXql4RsIp4Y- has been confirmedTrack | CTDB Status 1 | (113/113) Accurately ripped 2 | (113/113) Accurately ripped 3 | (113/113) Accurately ripped 4 | (113/113) Accurately ripped 5 | (113/113) Accurately ripped 6 | (113/113) Accurately ripped 7 | (113/113) Accurately ripped 8 | (113/113) Accurately ripped 9 | (113/113) Accurately ripped 10 | (113/113) Accurately ripped 11 | (113/113) Accurately ripped 12 | (113/113) Accurately ripped 13 | (113/113) Accurately ripped 14 | (113/113) Accurately ripped 15 | (113/113) Accurately ripped 16 | (113/113) Accurately ripped 17 | (113/113) Accurately ripped 18 | (113/113) Accurately ripped 19 | (113/113) Accurately ripped 20 | (113/113) Accurately ripped 21 | (113/113) Accurately ripped 22 | (113/113) Accurately ripped

==== Log checksum AB2E727A700298F9219DF627644CC8148AF9E4496543ED02A04F1C4B03502DE4 ====
REM GENRE AnimeREM DATE 2016REM DISCID 1B0DB616REM COMMENT "ExactAudioCopy v1.3"PERFORMER "Kensuke Ushio"TITLE "Eiga Koe no Katachi - OST"REM COMPOSER ""FILE "01 - heart beat.wav" WAVE TRACK 01 AUDIO TITLE "heart beat" PERFORMER "Kensuke Ushio" REM COMPOSER "" INDEX 01 00:00:00FILE "02 - round.wav" WAVE TRACK 02 AUDIO TITLE "round" PERFORMER "Kensuke Ushio" REM COMPOSER "" INDEX 01 00:00:00FILE "03 - into the sparkle.wav" WAVE TRACK 03 AUDIO TITLE "into the sparkle" PERFORMER "Kensuke Ushio" REM COMPOSER "" INDEX 01 00:00:00FILE "04 - black and white.wav" WAVE TRACK 04 AUDIO TITLE "black and white" PERFORMER "Kensuke Ushio" REM COMPOSER "" INDEX 01 00:00:00FILE "05 - (i can) say nothing.wav" WAVE TRACK 05 AUDIO TITLE "(i can) say nothing" PERFORMER "Kensuke Ushio" REM COMPOSER "" INDEX 01 00:00:00FILE "06 - night lights.wav" WAVE TRACK 06 AUDIO TITLE "night lights" PERFORMER "Kensuke Ushio" REM COMPOSER "" INDEX 01 00:00:00FILE "07 - blue blur.wav" WAVE TRACK 07 AUDIO TITLE "blue blur" PERFORMER "Kensuke Ushio" REM COMPOSER "" INDEX 01 00:00:00FILE "08 - vignette.wav" WAVE TRACK 08 AUDIO TITLE "vignette" PERFORMER "Kensuke Ushio" REM COMPOSER "" INDEX 01 00:00:00FILE "09 - narrow road.wav" WAVE TRACK 09 AUDIO TITLE "narrow road" PERFORMER "Kensuke Ushio" REM COMPOSER "" INDEX 01 00:00:00 TRACK 10 AUDIO TITLE "welcome to the park" PERFORMER "Kensuke Ushio" REM COMPOSER "" INDEX 00 03:51:30FILE "10 - welcome to the park.wav" WAVE INDEX 01 00:00:00FILE "11 - is your hair real.wav" WAVE TRACK 11 AUDIO TITLE "is your hair real?" PERFORMER "Kensuke Ushio" REM COMPOSER "" INDEX 01 00:00:00FILE "12 - laser.wav" WAVE TRACK 12 AUDIO TITLE "laser" PERFORMER "Kensuke Ushio" REM COMPOSER "" INDEX 01 00:00:00 TRACK 13 AUDIO TITLE "macchina eko" PERFORMER "Kensuke Ushio" REM COMPOSER "" INDEX 00 04:40:37FILE "13 - macchina eko.wav" WAVE INDEX 01 00:00:00FILE "14 - green.wav" WAVE TRACK 14 AUDIO TITLE "green" PERFORMER "Kensuke Ushio" REM COMPOSER "" INDEX 01 00:00:00 TRACK 15 AUDIO TITLE "sunlight" PERFORMER "Kensuke Ushio" REM COMPOSER "" INDEX 00 02:36:54FILE "15 - sunlight.wav" WAVE INDEX 01 00:00:00 TRACK 16 AUDIO TITLE "sketch no.19" PERFORMER "Kensuke Ushio" REM COMPOSER "" INDEX 00 03:17:72FILE "16 - sketch no.19.wav" WAVE INDEX 01 00:00:00 TRACK 17 AUDIO TITLE "sustain" PERFORMER "Kensuke Ushio" REM COMPOSER "" INDEX 00 01:40:04FILE "17 - sustain.wav" WAVE INDEX 01 00:00:00 TRACK 18 AUDIO TITLE "no one here" PERFORMER "Kensuke Ushio" REM COMPOSER "" INDEX 00 02:04:43FILE "18 - no one here.wav" WAVE INDEX 01 00:00:00 TRACK 19 AUDIO TITLE "your silent portrait" PERFORMER "Kensuke Ushio" REM COMPOSER "" INDEX 00 03:34:63FILE "19 - your silent portrait.wav" WAVE INDEX 01 00:00:00FILE "20 - fractal.wav" WAVE TRACK 20 AUDIO TITLE "fractal" PERFORMER "Kensuke Ushio" REM COMPOSER "" INDEX 01 00:00:00 TRACK 21 AUDIO TITLE "flare" PERFORMER "Kensuke Ushio" REM COMPOSER "" INDEX 00 05:44:58FILE "21 - flare.wav" WAVE INDEX 01 00:00:00 TRACK 22 AUDIO TITLE "speed of youth" PERFORMER "Kensuke Ushio" REM COMPOSER "" INDEX 00 02:15:43FILE "22 - speed of youth.wav" WAVE INDEX 01 00:00:00
</div>
</div>
</div>
</div>
</div>
</div>
</div>
</div>
[spoiler="2017 - OST 2 [DSP-02131]"]
<div class="post-box">
<div class="sp-wrap">
<div class="sp-head folded">CD 1</div>
<div class="sp-body">CD 1
Список треков:
01. inner silence part.i [54:52]Official DR value: DR20

Проверка:
<div class="post-box">
<div class="sp-wrap">
<div class="sp-head folded">Открыть</div>
<div class="sp-body">
<div class="sp-wrap">
<div class="sp-head folded">ЕАС Лог</div>
<div class="sp-body">

Exact Audio Copy V1.3 from 2. September 2016

EAC extraction logfile from 27. December 2017, 19:45

Kensuke Ushio / Eiga Koe no Katachi - OST 2

Used drive : PLEXTOR CD-R PREMIUM2 Adapter: 1 ID: 1

Read mode : SecureUtilize accurate stream : YesDefeat audio cache : YesMake use of C2 pointers : No

Read offset correction : 30Overread into Lead-In and Lead-Out : YesFill up missing offset samples with silence : YesDelete leading and trailing silent blocks : NoNull samples used in CRC calculations : YesUsed interface : Native Win32 interface for Win NT & 2000Gap handling : Appended to previous track

Used output format : User Defined EncoderSelected bitrate : 1024 kBit/sQuality : HighAdd ID3 tag : NoCommand line compressor : C:\Program Files (x86)\Exact Audio Copy\Flac\flac.exeAdditional command line options : -V -8 -T "Genre=%genre%" -T "Artist=%artist%" -T "Title=%title%" -T "Album=%albumtitle%" -T "Date=%year%" -T "Tracknumber=%tracknr%" -T "Comment=%comment%" %source%

TOC of the extracted CD

Track | Start | Length | Start sector | End sector --------------------------------------------------------- 1 | 0:00.00 | 54:51.69 | 0 | 246893

Track 1

Filename D:\Work\RIPs\01 - inner silence part.i.wav

Pre-gap length 0:00:02.00

Peak level 73.4 % Extraction speed 13.0 X Track quality 100.0 % Test CRC 6F1A7831 Copy CRC 6F1A7831 Track not present in AccurateRip database Copy OK

None of the tracks are present in the AccurateRip database

No errors occurred

End of status report

---- CUETools DB Plugin V2.1.6

[CTDB TOCID: _EQjMyWbPjmXg0SyyPuZmIwL0v8-] foundSubmit result: _EQjMyWbPjmXg0SyyPuZmIwL0v8- has been confirmedTrack | CTDB Status 1 | (16/16) Accurately ripped

==== Log checksum CFA12F903943524215DEBCD3861C6CFA36CD9E056A82C87CB163ACFDD604AB23 ====
[/spoiler]
REM GENRE AnimeREM DATE 2017REM DISCID 020CDB01REM COMMENT "ExactAudioCopy v1.3"PERFORMER "Kensuke Ushio"TITLE "Eiga Koe no Katachi - OST 2"REM COMPOSER ""FILE "01 - inner silence part.i.wav" WAVE TRACK 01 AUDIO TITLE "inner silence part.i" PERFORMER "Kensuke Ushio" REM COMPOSER "" INDEX 01 00:00:00
</div>
</div>
</div>
</div>
</div>
CD 2
Список треков:
01. inner silence part.ii [49:01]
02. inner silence part.iii [18:00]
03. inner silence part.iv [10:48]Official DR value: DR16

Проверка:
<div class="post-box">
<div class="sp-wrap">
<div class="sp-head folded">Открыть</div>
<div class="sp-body">
<div class="sp-wrap">
<div class="sp-head folded">ЕАС Лог</div>
<div class="sp-body">

Exact Audio Copy V1.3 from 2. September 2016

EAC extraction logfile from 28. December 2017, 0:25

Kensuke Ushio / Eiga Koe no Katachi - OST 2

Used drive : PLEXTOR CD-R PREMIUM2 Adapter: 1 ID: 1

Read mode : SecureUtilize accurate stream : YesDefeat audio cache : YesMake use of C2 pointers : No

Read offset correction : 30Overread into Lead-In and Lead-Out : YesFill up missing offset samples with silence : YesDelete leading and trailing silent blocks : NoNull samples used in CRC calculations : YesUsed interface : Native Win32 interface for Win NT & 2000Gap handling : Appended to previous track

Used output format : User Defined EncoderSelected bitrate : 1024 kBit/sQuality : HighAdd ID3 tag : NoCommand line compressor : C:\Program Files (x86)\Exact Audio Copy\Flac\flac.exeAdditional command line options : -V -8 -T "Genre=%genre%" -T "Artist=%artist%" -T "Title=%title%" -T "Album=%albumtitle%" -T "Date=%year%" -T "Tracknumber=%tracknr%" -T "Comment=%comment%" %source%

TOC of the extracted CD

Track | Start | Length | Start sector | End sector --------------------------------------------------------- 1 | 0:00.00 | 49:00.57 | 0 | 220556 2 | 49:00.57 | 18:00.26 | 220557 | 301582 3 | 67:01.08 | 10:47.50 | 301583 | 350157

Track 1

Filename D:\Work\RIPs\01 - inner silence part.ii.wav

Pre-gap length 0:00:02.00

Peak level 75.0 % Extraction speed 12.7 X Track quality 100.0 % Test CRC 0CF490A1 Copy CRC 0CF490A1 Track not present in AccurateRip database Copy OK

Track 2

Filename D:\Work\RIPs\02 - inner silence part.iii.wav

Peak level 64.5 % Extraction speed 15.3 X Track quality 99.9 % Test CRC 7664879F Copy CRC 7664879F Track not present in AccurateRip database Copy OK

Track 3

Filename D:\Work\RIPs\03 - inner silence part.iv.wav

Peak level 95.8 % Extraction speed 16.3 X Track quality 100.0 % Test CRC 3D05670E Copy CRC 3D05670E Track not present in AccurateRip database Copy OK

None of the tracks are present in the AccurateRip database

No errors occurred

End of status report

---- CUETools DB Plugin V2.1.6

[CTDB TOCID: Kdez2iWu5RPP0oOfoPsdWJBbArk-] foundSubmit result: Kdez2iWu5RPP0oOfoPsdWJBbArk- has been confirmedTrack | CTDB Status 1 | (15/15) Accurately ripped 2 | (15/15) Accurately ripped 3 | (15/15) Accurately ripped

==== Log checksum D07640641D3E59585F572E69C0C552E60395C52C5F1A87C467ABC926967E2E86 ====
REM GENRE AnimeREM DATE 2017REM DISCID 1C123C03REM COMMENT "ExactAudioCopy v1.3"PERFORMER "Kensuke Ushio"TITLE "Eiga Koe no Katachi - OST 2"REM COMPOSER ""FILE "01 - inner silence part.ii.wav" WAVE TRACK 01 AUDIO TITLE "inner silence part.ii" PERFORMER "Kensuke Ushio" REM COMPOSER "" INDEX 01 00:00:00FILE "02 - inner silence part.iii.wav" WAVE TRACK 02 AUDIO TITLE "inner silence part.iii" PERFORMER "Kensuke Ushio" REM COMPOSER "" INDEX 01 00:00:00FILE "03 - inner silence part.iv.wav" WAVE TRACK 03 AUDIO TITLE "inner silence part.iv" PERFORMER "Kensuke Ushio" REM COMPOSER "" INDEX 01 00:00:00
</div>
</div>
</div>
</div>
</div>
</div>
</div>
</div>
</div>
</div>
Сингл:
<div class="sp-wrap">
<div class="sp-head folded">2016 - ED [PCCA-15036]</div>
<div class="sp-body">
ED
Список треков:
01. Koi wo Shita no wa [6:02]
02. Natsubate [4:41]
03. Binetsu [5:28]
04. Koi wo Shita no wa (instrumental) [5:55]Official DR value: DR9
Проверка:
<div class="post-box">
<div class="sp-wrap">
<div class="sp-head folded">Открыть</div>
<div class="sp-body">
<div class="sp-wrap">
<div class="sp-head folded">ЕАС Лог</div>
<div class="sp-body">

Exact Audio Copy V1.3 from 2. September 2016

EAC extraction logfile from 27. December 2017, 15:08

aiko / Eiga Koe no Katachi - ED

Used drive : PLEXTOR CD-R PREMIUM2 Adapter: 1 ID: 1

Read mode : SecureUtilize accurate stream : YesDefeat audio cache : YesMake use of C2 pointers : No

Read offset correction : 30Overread into Lead-In and Lead-Out : YesFill up missing offset samples with silence : YesDelete leading and trailing silent blocks : NoNull samples used in CRC calculations : YesUsed interface : Native Win32 interface for Win NT & 2000Gap handling : Appended to previous track

Used output format : User Defined EncoderSelected bitrate : 1024 kBit/sQuality : HighAdd ID3 tag : NoCommand line compressor : C:\Program Files (x86)\Exact Audio Copy\Flac\flac.exeAdditional command line options : -V -8 -T "Genre=%genre%" -T "Artist=%artist%" -T "Title=%title%" -T "Album=%albumtitle%" -T "Date=%year%" -T "Tracknumber=%tracknr%" -T "Comment=%comment%" %source%

TOC of the extracted CD

Track | Start | Length | Start sector | End sector --------------------------------------------------------- 1 | 0:00.00 | 6:02.05 | 0 | 27154 2 | 6:02.05 | 4:41.20 | 27155 | 48249 3 | 10:43.25 | 5:28.18 | 48250 | 72867 4 | 16:11.43 | 5:55.18 | 72868 | 99510

Track 1

Filename D:\Work\RIPs\01 - Koi wo Shita no wa.wav

Pre-gap length 0:00:02.00

Peak level 98.9 % Extraction speed 9.2 X Track quality 100.0 % Test CRC 38B25B25 Copy CRC 38B25B25 Accurately ripped (confidence 21) [7A7C53F2] (AR v2) Copy OK

Track 2

Filename D:\Work\RIPs\02 - Natsubate.wav

Peak level 99.0 % Extraction speed 10.1 X Track quality 100.0 % Test CRC D7E7F806 Copy CRC D7E7F806 Accurately ripped (confidence 19) [F952EB49] (AR v2) Copy OK

Track 3

Filename D:\Work\RIPs\03 - Binetsu.wav

Peak level 98.9 % Extraction speed 11.0 X Track quality 100.0 % Test CRC 24709D34 Copy CRC 24709D34 Accurately ripped (confidence 19) [735D3B66] (AR v2) Copy OK

Track 4

Filename D:\Work\RIPs\04 - Koi wo Shita no wa (instrumental).wav

Peak level 98.8 % Extraction speed 10.6 X Track quality 99.9 % Test CRC 35980B18 Copy CRC 35980B18 Accurately ripped (confidence 14) [622D9B9F] (AR v2) Copy OK

All tracks accurately ripped

No errors occurred

End of status report

---- CUETools DB Plugin V2.1.6

[CTDB TOCID: Q3Qaik4Lq_eNyCJJn.0.oJ4QjU4-] foundSubmit result: Q3Qaik4Lq_eNyCJJn.0.oJ4QjU4- has been confirmedTrack | CTDB Status 1 | (156/156) Accurately ripped 2 | (156/156) Accurately ripped 3 | (156/156) Accurately ripped 4 | (156/156) Accurately ripped

==== Log checksum 3792A34C9EC1B7C359D224D0B0E6B4048FD27CD246AC310BC0D39A983DEE1045 ====
REM GENRE AnimeREM DATE 2016REM DISCID 31052E04REM COMMENT "ExactAudioCopy v1.3"PERFORMER "aiko"TITLE "Eiga Koe no Katachi - ED"REM COMPOSER ""FILE "01 - Koi wo Shita no wa.wav" WAVE TRACK 01 AUDIO TITLE "Koi wo Shita no wa" PERFORMER "aiko" REM COMPOSER "" INDEX 01 00:00:00FILE "02 - Natsubate.wav" WAVE TRACK 02 AUDIO TITLE "Natsubate" PERFORMER "aiko" REM COMPOSER "" INDEX 01 00:00:00FILE "03 - Binetsu.wav" WAVE TRACK 03 AUDIO TITLE "Binetsu" PERFORMER "aiko" REM COMPOSER "" INDEX 01 00:00:00FILE "04 - Koi wo Shita no wa (instrumental).wav" WAVE TRACK 04 AUDIO TITLE "Koi wo Shita no wa (instrumental)" PERFORMER "aiko" REM COMPOSER "" INDEX 01 00:00:00
</div>
</div>
</div>
</div>
</div>
</div>
</div>


Трекер:  [ 09-Янв-2018 19:42 ]

  

Скачать .torrent

Размер .torrent файла 20 KB


Размер: 1.25 GB
Хэш (hash) релиза: 8822e241c353a2c88594441cfa0460f636d459a3

Еще никто не оставлял запись к записи скачать торрент Eiga Koe no Katachi Форма голоса - 2016-2017 г., FLAC . Будь первым!

!Обратная связь