The Expendables 2 2012 DVDRIP XviD-Th3Sp3cialist | Mile 22 (2018) | Forgot your password?

Скачать через торрент АККА: Инспекция по 13 округам ACCA 13-ku Kansatsu-ka Фильм бесплатно в хорошем качестве torrent

Скачивайте на UnionPeer.org фильмы через торрент без регистрации. Новинки кино в хорошем качестве через торрент. На UnionPeer.org можно скачать через торрент фильмы 2014 и 2015 годов. Самые новые фильмы.

Скачать торрент АККА: Инспекция по 13 округам ACCA 13-ku Kansatsu-ka бесплатно через .torrent фильм мультфильм сериал

Статистика раздачи
Размер:  1.3 GB   |    Зарегистрирован:  7 месяцев   |    .torrent скачан:  26 раз   |   
Раздают:  1  
   
загрузка...
 
Автор Сообщение

Galfimbul

avatar Galfimbul


АККА: Инспекция по 13 округам
Оригинальное название: ACCA13区監察課
Английское название: ACCA: 13-Territory Inspection Dept.
Период трансляции: c 10.01.2017 по 28.03.2017
Страна: Япония
Жанр: приключения, драма, полиция
Продолжительность: ТВ (12 эп.) по ~ 24 мин.Режиссер: Нацумэ Синго
Студия: Перевод: Субтитры - [Yakusub Studio]
Переводчик: Nika_Elrik; Редактор: Nagi; Оформление: licuma.Описание: Королевство Дова, разделенное на 13 самостоятельных регионов, недавно отпраздновало 99-летие своего монарха. На территории Довы действуют всевозможные учреждения и службы, которые в свою очередь находятся под контролем мощной организации, известной как «АККА».
Джин Отас — заместитель начальника одной из таких служб, инспекционного агентства, в наличии которого — небольшие филиалы, разбросанные по 13 регионам, с центральным офисом в столице. Занимаются они в основном отслеживанием деятельности «АККА» по всему королевству, а также сбором и хранением данных о ней. Несмотря на свой статус, подчас и самому Джину приходится, по долгу службы, отправляться на места для самоличной оценки ситуаций.
1. Jean the Cigarette-Peddler
2. The Partner in Crime`s Name Is Nino
3. The Swirling Smoke of Rumors in the Castle
4. Smoldering Embers in an Isolated Nation
5. Overlapping Footprints in the Distance.
6. Where Pride and Train Tracks Lead
7. The Truth Emerges in the Night Mists
8. The Princess Who Spread Her Wings and the Friend Who Had a Duty
9. A Graceful Black Adder Bears Its Fangs
10. Starfall in a City Without a Sky
11. Furawau's Flowers Smell of Malice
12. Where the Bird Flies
Качество видео: WEBRip
Формат: MP4
Видео кодек: H.264
Аудио кодек: AAC
Видео: MPEG4 Video (H264) 480x272 23.976fps 511kbps
Аудио: AAC 44100Hz stereo 129kbps
General
Complete name : C:\Documents and Settings\BK201\Рабочий стол\ACCA - 13-ku Kansatsu-ka\ACCA - 13-ku Kansatsu-ka - 01.mp4
Format : MPEG-4
Format profile : Base Media
Codec ID : isom (isom/avc1)
File size : 111 MiB
Duration : 24 min
Overall bit rate mode : Variable
Overall bit rate : 644 kb/s
Encoded date : UTC 2017-12-05 12:12:04
Tagged date : UTC 2017-12-05 12:12:04

Video
ID : 1
Format : AVC
Format/Info : Advanced Video Codec
Format profile : [email protected]
Format settings, CABAC : Yes
Format settings, ReFrames : 2 frames
Codec ID : avc1
Codec ID/Info : Advanced Video Coding
Duration : 24 min
Bit rate : 512 kb/s
Maximum bit rate : 3 386 kb/s
Width : 480 pixels
Height : 272 pixels
Display aspect ratio : 16:9
Frame rate mode : Constant
Frame rate : 23.976 (24000/1001) FPS
Original frame rate : 23.976 (23976/1000) FPS
Color space : YUV
Chroma subsampling : 4:2:0
Bit depth : 8 bits
Scan type : Progressive
Bits/(Pixel*Frame) : 0.164
Stream size : 88.5 MiB (79%)
Writing library : x264 core 65 r999kMod cc51047
Encoding settings : cabac=1 / ref=2 / deblock=1:-2:-1 / analyse=0x1:0x131 / me=umh / subme=7 / psy_rd=1.0:0.0 / mixed_ref=1 / me_range=16 / chroma_me=1 / trellis=2 / 8x8dct=0 / cqm=0 / deadzone=21,11 / chroma_qp_offset=-2 / threads=2 / thread_queue=2 / nr=0 / decimate=0 / mbaff=0 / bframes=3 / b_pyramid=0 / b_adapt=1 / b_bias=0 / direct=3 / wpredb=1 / keyint=250 / keyint_min=25 / scenecut=40(pre) / rc=2pass / bitrate=512 / ratetol=1.0 / qcomp=0.60 / qpmin=10 / qpmax=51 / qpstep=4 / cplxblur=20.0 / qblur=0.5 / ip_ratio=1.40 / pb_ratio=1.30 / aq=1:1.00
Encoded date : UTC 2017-12-05 12:12:04
Tagged date : UTC 2017-12-05 12:12:07

Audio
ID : 2
Format : AAC
Format/Info : Advanced Audio Codec
Format profile : LC
Codec ID : 40
Duration : 24 min
Bit rate mode : Variable
Bit rate : 129 kb/s
Maximum bit rate : 198 kb/s
Channel(s) : 2 channels
Channel positions : Front: L R
Sampling rate : 44.1 kHz
Frame rate : 43.066 FPS (1024 spf)
Compression mode : Lossy
Stream size : 22.3 MiB (20%)
Encoded date : UTC 2017-12-05 12:12:06
Tagged date : UTC 2017-12-05 12:12:07


Трекер:  [ 07-Янв-2018 21:42 ]

  

Скачать .torrent

Размер .torrent файла 15 KB


Размер: 1.3 GB
Хэш (hash) релиза: 79976b4bd882bfbc231cdf8f24e6cdaf6d4608dd
Подписка на обновления:

Еще никто не оставлял запись к записи скачать торрент АККА: Инспекция по 13 округам ACCA 13-ku Kansatsu-ka . Будь первым!

!Обратная связь