Nagrali kawałek wykorzystując efekt opóźnienia przy transmisji na żywo | Watch movie | God of Martial Arts: chapter 2.3

Скачать через торрент [SERIAL] Аббатство Даунтон Downton Abbey бесплатно русская версия torrent активатор

Статистика раздачи
Размер:  1.69 GB   |    Зарегистрирован:  6 месяцев   |    .torrent скачан:  26 раз   |   
Раздают:  1  
   
загрузка...
 
Автор Сообщение

Galfimbul

avatar Galfimbul


Аббатство Даунтон / Downton Abbey
Год выпуска: 2010
Страна: Великобритания
Жанр: драма, история
Продолжительность: ~ 00:50:00
Перевод: Профессиональный (многоголосый закадровый) ТО «Русский дубляж» (по заказу ТК "Домашний")
Субтитры: нетРежиссер: Брайан Келли / Brian Kelly, Бен Болт / Ben Bolt, Брайан Персивал / Brian PercivalВ ролях: Хью Бонневилль, Элизабет МакГоверн, Мишель Докери, Джим Картер, Брендан Койл, Джоанн Фроггатт, Лаура Кармайкл, Джессика Браун-Финдли, Мэгги Смит, Дэн Стивенс и др.Описание: 1912 год. Англия. Наследник титула графа Грэнтэма, живущего с семьей в своем родовом имении Даунтон, погибает на «Титанике». Семья ожидает, что теперь, когда наследников мужского пола не осталось, владения и капитал семьи после смерти графа перейдут к его старшей дочери. Но граф, отдавший всю свою жизнь своему поместью, отказывается отстаивать права юной Мэри, считая, что все, включая немалый капитал его жены, должно отойти к наследнику его графского титула, безвестному дальнему родственнику…Качество: HDRip
Формат: MP4
Видео: MPEG4-Visual, 480x272 (16:9), 23.976 fps, ~512 Kbps
Аудио: Русский, AAC, 48.0 KHz, 2 ch, 128 Kbps
ОбщееПолное имя : D:\Раздачи\Downton.Abbey.s01.HDRip.480x\Downton.Abbey.s01e03.HDRip.480x.mp4Формат : MPEG-4Профиль формата : Base Media / Version 2Идентификатор кодека : mp42 (isom/mp42/3gp5)Размер файла : 226 МбайтПродолжительность : 49 м.Режим общего битрейта : ПеременныйОбщий поток : 637 Кбит/секДата кодирования : UTC 2018-01-02 12:53:05Дата пометки : UTC 2018-01-02 12:53:05

ВидеоИдентификатор : 201Формат : MPEG-4 VisualПрофиль формата : [email protected]Параметр BVOP формата : НетПараметр QPel формата : НетПараметр GMC формата : Без точки переходаПараметр матрицы формата : Default (H.263)Идентификатор кодека : 20Продолжительность : 49 м.Вид битрейта : ПеременныйБитрейт : 507 Кбит/секМаксимальный битрейт : 2298 Кбит/секШирина : 480 пикселейВысота : 272 пикселяСоотношение сторон : 16:9Режим частоты кадров : ПостоянныйЧастота кадров : 23,976 (24000/1001) кадра/секЦветовое пространство : YUVСубдискретизация насыщенности : 4:2:0Битовая глубина : 8 битТип развёртки : ПрогрессивнаяМетод сжатия : С потерямиБит/(Пиксели*Кадры) : 0.162Размер потока : 179 Мбайт (79%)Библиотека кодирования : Lavc52.30.2Дата кодирования : UTC 2018-01-02 12:53:05Дата пометки : UTC 2018-01-02 12:53:14

АудиоИдентификатор : 101Формат : AACФормат/Информация : Advanced Audio CodecПрофиль формата : LCИдентификатор кодека : 40Продолжительность : 49 м.Вид битрейта : ПеременныйБитрейт : 128 Кбит/секМаксимальный битрейт : 277 Кбит/секКаналы : 2 каналаРасположение каналов : Front: L RЧастота : 48,0 КГцЧастота кадров : 46,875 кадров/сек (1024 spf)Метод сжатия : С потерямиРазмер потока : 45,3 Мбайт (20%)Дата кодирования : UTC 2018-01-02 12:53:10Дата пометки : UTC 2018-01-02 12:53:14

Прочее #1Идентификатор : 2Тип : Object descriptionФормат : SystemИдентификатор кодека : 1Продолжительность : 1 с. 0 мс.Дата кодирования : UTC 2018-01-02 12:53:14Дата пометки : UTC 2018-01-02 12:53:14

Прочее #2Идентификатор : 1Тип : Scene descriptionФормат : System CoreИдентификатор кодека : 2Продолжительность : 1 с. 0 мс.Дата кодирования : UTC 2018-01-02 12:53:14Дата пометки : UTC 2018-01-02 12:53:14


Трекер:  [ 05-Янв-2018 16:12 ]

  

Скачать .torrent

Размер .torrent файла 17 KB


Размер: 1.69 GB
Хэш (hash) релиза: 0f6b7062047b1396f8185b228b1f59524d7216b6

Еще никто не оставлял запись к записи скачать торрент [SERIAL] Аббатство Даунтон Downton Abbey . Будь первым!

!Обратная связь