Downsizing | 18.05.1800:47 Uhr PC Games MMore 06/2018 0 / 01.233 Hits VID P2P DDL 0 Kommentare | Ralph Ineson

Скачать через торрент Тэд-путешественник и тайна царя Мидаса Tadeo Jones 2: El secreto del Rey Midas Фильм бесплатно в хорошем качестве torrent

Скачивайте на UnionPeer.org фильмы через торрент без регистрации. Новинки кино в хорошем качестве через торрент. На UnionPeer.org можно скачать через торрент фильмы 2014 и 2015 годов. Самые новые фильмы.

Скачать торрент Тэд-путешественник и тайна царя Мидаса Tadeo Jones 2: El secreto del Rey Midas бесплатно через .torrent фильм мультфильм сериал

Статистика раздачи
Размер:  1.46 GB   |    Зарегистрирован:  5 месяцев 21 день   |    .torrent скачан:  94 раза   |   
Раздают:  1  
   
загрузка...
 
Автор Сообщение

Galfimbul

avatar Galfimbul


Тэд-путешественник и тайна царя Мидаса / Tadeo Jones 2: El secreto del Rey Midas

Страна: Испания
Жанр: мультфильм, комедия, приключения
Год выпуска: 2017
Продолжительность: 01:24:58Перевод: Профессиональный (дублированный) | iTunes
Субтитры: нет
Оригинальная аудиодорожка: нетРежиссер: Давид Алонсо / David Alonso, Энрике Гато / Enrique GatoВ ролях: Оскар Барберан, Мишель Хеннер, Адриана Угарте, Луис Посада, Мигель Анхель Хеннер, Хосе Корбачо, Росер Баталья, Рафаэль Калво, Давид Брау, Франческ БельдаОписание: Тэд, не самый удачливый и ловкий исследователь и путешественник, и его странноватые друзья, в числе которых настоящая мумия и смышленый пес Джефф, отправляются на розыски злобного богача Джека Рэкхема, похитившего Сару. Любимая Тэда обнаружила, где спрятаны сокровища легендарного царя Мидаса, и злодей надеется их заполучить. Но Тэд и его команда должны разрушить планы беспринципного богача и освободить Сару!Качество видео: HDRip
Формат видео: AVI

Видео: 720x304 (2.37:1), 23.976 fps, XviD build 73 ~2058 kbps avg, 0.39 bit/pixel
Аудио: 48 kHz, AC3 Dolby Digital, 3/2 (L,C,R,l,r) + LFE ch, ~384 kbpsСэмпл
Format                      : AVI
Format/Info                 : Audio Video Interleave
File size                   : 1.46 GiB
Duration                    : 1 h 24 min
Overall bit rate            : 2 452 kb/s
Writing application         : VirtualDubMod 1.5.10.3 | www.virtualdub-fr.org || (build 2550/release)
Writing library             : VirtualDubMod build 2550/release

Video
ID                          : 0
Format                      : MPEG-4 Visual
Format profile              : Advanced [email protected]
Format settings             : BVOP1 / Custom Matrix
Format settings, BVOP       : 1
Format settings, QPel       : No
Format settings, GMC        : No warppoints
Format settings, Matrix     : Custom
Codec ID                    : XVID
Codec ID/Hint               : XviD
Duration                    : 1 h 24 min
Bit rate                    : 2 059 kb/s
Width                       : 720 pixels
Height                      : 304 pixels
Display aspect ratio        : 2.35:1
Frame rate                  : 23.976 (24000/1001) FPS
Color space                 : YUV
Chroma subsampling          : 4:2:0
Bit depth                   : 8 bits
Scan type                   : Progressive
Compression mode            : Lossy
Bits/(Pixel*Frame)          : 0.392
Stream size                 : 1.22 GiB (84%)
Writing library             : XviD 73

Audio
ID                          : 1
Format                      : AC-3
Format/Info                 : Audio Coding 3
Codec ID                    : 2000
Duration                    : 1 h 24 min
Bit rate mode               : Constant
Bit rate                    : 384 kb/s
Channel(s)                  : 6 channels
Channel positions           : Front: L C R, Side: L R, LFE
Sampling rate               : 48.0 kHz
Frame rate                  : 31.250 FPS (1536 SPF)
Bit depth                   : 16 bits
Compression mode            : Lossy
Stream size                 : 233 MiB (16%)
Alignment                   : Split accross interleaves
Interleave, duration        : 42  ms (1.00 video frame)
Interleave, preload duratio : 500  ms
Service kind                : Complete Main


Трекер:  [ 04-Янв-2018 13:06 ]

  

Скачать .torrent

Размер .torrent файла 15 KB


Размер: 1.46 GB
Хэш (hash) релиза: 96fd39bf5f46338ad66caf23538108cbd81338cc
Подписка на обновления:

Торренты, похожие на Тэд-путешественник и тайна царя Мидаса Tadeo Jones 2: El secreto del Rey Midas скачать торрент

Форум Название Автор Размер S L Добавлен
Мультфильмы до 2016 ·· Тэд-путешественник и тайна царя Мидаса / Tadeo Jones 2: El secreto del Rey Midas (Давид Алонсо, Энрике Гато / David Alonso, Enrique Gato) [2017, Испания, мультфильм, фэнтези, комедия, приключения, Blu-ray disc 1080p] [CEE] Dub + Sub Rus + Original En Galfimbul 2992984255327.87 GB 0 0 1526131830

16:30

12-Май-18

Мультфильмы 2016-2018 (Новинки мультфильмов) ·· Тэд-путешественник и тайна царя Мидаса / Tadeo Jones 2: El secreto del Rey Midas (Давид Алонсо, Энрике Гато) [2017 г., мультфильм, комедия, приключения, BDRip 720p] Лицензия Galfimbul 43234677034.03 GB 0 0 1523597651

08:34

13-Апр-18

Мультфильмы 2016-2018 (Новинки мультфильмов) ·· Тэд-путешественник и тайна царя Мидаса / Tadeo Jones 2: El secreto del Rey Midas (Давид Алонсо, Энрике Гато) [2017 г., мультфильм, комедия, приключения, BDRip 1080p] Лицензия Galfimbul 93589295858.72 GB 0 0 1523597642

08:34

13-Апр-18

Мультфильмы до 2016 ·· Тэд-путешественник и тайна царя Мидаса / Tadeo Jones 2: El secreto del Rey Mida (Давид Алонсо, Энрике Гато / David Alonso, Enrique Gato) [2017, Испания, Мультфильм, Комедия, Приключения, Семейный, BDRip-AVC] Dub + Rus Sub + Original Eng, Spa Galfimbul 22166999602.06 GB 0 0 1516102624

14:37

16-Янв-18

Мультфильмы 2016-2018 (Новинки мультфильмов) ·· Тэд-путешественник и тайна царя Мидаса / Tadeo Jones 2: El secreto del Rey Midas (Давид Алонсо / David Alonso, Энрике Гато / Enrique Gato) [2017, Испания, мультфильм, комедия, приключения, BDRip] iTunes Galfimbul 15278415971.42 GB 0 0 1515095525

22:52

4-Янв-18

Мультфильмы 2016-2018 (Новинки мультфильмов) ·· Тэд-путешественник и тайна царя Мидаса / Tadeo Jones 2: El secreto del Rey Midas (Давид Алонсо, Энрике Гато) [2017 г., мультфильм, комедия, приключения, НDRip] iTunes Galfimbul 14679367681.37 GB 0 0 1515025219

03:20

4-Янв-18

Зарубежные фильмы 2016-2018 (Новинки зарубежного кино) ·· Тэд-путешественник и тайна царя Мидаса / Tadeo Jones 2: El secreto del Rey Midas (Давид Алонсо, Энрике Гато) [2017 г., мультфильм, комедия, приключения, TS] DUB Galfimbul 14678159361.37 GB 0 0 1508636366

04:39

22-Окт-17

Зарубежные фильмы 2016-2018 (Новинки зарубежного кино) ·· Тэд-путешественник и тайна царя Мидаса / Tadeo Jones 2: El secreto del Rey Midas (Давид Алонсо, Энрике Гато) [2017 г., мультфильм, комедия, приключения, TS 720p] DUB Galfimbul 18718107131.74 GB 0 0 1508636366

04:39

22-Окт-17

3D Мультфильмы ·· Тэд-путешественник и тайна царя Мидаса в 3Д / Tadeo Jones 2: El secreto del Rey Midas 3D (Давид Алонсо / David Alonso, Энрике Гато / Enrique Gato) [2017, Испания, мультфильм, комедия, приключения, Blu-ray disc Custom 1080p] BD3D Galfimbul 2419503923222.53 GB 0 0 1517739405

13:16

4-Фев-18

Еще никто не оставлял запись к записи скачать торрент Тэд-путешественник и тайна царя Мидаса Tadeo Jones 2: El secreto del Rey Midas . Будь первым!

!Обратная связь