Running Man Episode 27 | Plasmaphysik | Good Doctor

Скачать через торрент музыку Zero no Tsukaima Подручный Луизы-Нулизы - 2006-2014 г., FLAC+mp3 бесплатно без регистрации torrent

Статистика раздачи
Размер:  9.72 GB   |    Зарегистрирован:  6 месяцев   |    .torrent скачан:  36 раз   |   
Раздают:  1  
   
загрузка...
 
Автор Сообщение

Galfimbul

avatar Galfimbul


Подручный Луизы-НулизыОбщие характеристики:
Производство:
Год выпуска: 2006-2014
Формат: +
Частота: 44100Гц
Продолжительность: 459 треков - 1день/15:02:30Альбомы:
<div class="sp-wrap">
<div class="sp-head folded">2006 - Character CD 1 [KDCA-0078]</div>
<div class="sp-body">
Character CD 1
Список треков:
01. Follow Me!! [4:25]
02. Dorama (Mahou no Kubiwa) [17:32]
03. Toku on CD ~ Opening [1:23]
04. Roshian. Kado Toku [11:35]
05. Kyarakuta Toku [8:38]
06. Toku on CD ~ Ending [4:26]
07. Follow Me!! (Off Vocal) [4:25]Official DR value: DR12
Проверка:
<div class="post-box">
<div class="sp-wrap">
<div class="sp-head folded">Открыть</div>
<div class="sp-body">
<div class="sp-wrap">
<div class="sp-head folded">ЕАС Лог</div>
<div class="sp-body">

Exact Audio Copy V1.0 beta 3 from 29. August 2011

EAC extraction logfile from 2. December 2012, 22:55

- / Zero no Tsukaima Character CD 1

Used drive : PLEXTOR CD-R PREMIUM2 Adapter: 0 ID: 0

Read mode : SecureUtilize accurate stream : YesDefeat audio cache : YesMake use of C2 pointers : No

Read offset correction : 30Overread into Lead-In and Lead-Out : YesFill up missing offset samples with silence : YesDelete leading and trailing silent blocks : NoNull samples used in CRC calculations : YesUsed interface : Native Win32 interface for Win NT & 2000Gap handling : Appended to previous track

Used output format : User Defined EncoderSelected bitrate : 1024 kBit/sQuality : HighAdd ID3 tag : NoCommand line compressor : C:\Program Files (x86)\Exact Audio Copy\Flac\flac.exeAdditional command line options : -V -8 -T "Genre=%genre%" -T "Artist=%artist%" -T "Title=%title%" -T "Album=%albumtitle%" -T "Date=%year%" -T "Tracknumber=%tracknr%" -T "Comment=%comment%" %source%

TOC of the extracted CD

Track | Start | Length | Start sector | End sector --------------------------------------------------------- 1 | 0:00.00 | 4:25.22 | 0 | 19896 2 | 4:25.22 | 17:32.18 | 19897 | 98814 3 | 21:57.40 | 1:22.51 | 98815 | 105015 4 | 23:20.16 | 11:34.70 | 105016 | 157135 5 | 34:55.11 | 8:38.28 | 157136 | 196013 6 | 43:33.39 | 4:26.31 | 196014 | 215994 7 | 47:59.70 | 4:25.36 | 215995 | 235905

Track 1

Filename C:\RIPs\01 - Follow Me!!.wav

Pre-gap length 0:00:02.00

Peak level 98.0 % Extraction speed 8.3 X Track quality 99.9 % Test CRC 74DAF22B Copy CRC 74DAF22B Track not present in AccurateRip database Copy OK

Track 2

Filename C:\RIPs\02 - Dorama (Mahou no Kubiwa).wav

Pre-gap length 0:00:01.00

Peak level 99.9 % Extraction speed 11.2 X Track quality 100.0 % Test CRC 7EC74F61 Copy CRC 7EC74F61 Track not present in AccurateRip database Copy OK

Track 3

Filename C:\RIPs\03 - Toku on CD ~ Opening.wav

Pre-gap length 0:00:02.00

Peak level 89.5 % Extraction speed 8.5 X Track quality 99.8 % Test CRC 522992CD Copy CRC 522992CD Track not present in AccurateRip database Copy OK

Track 4

Filename C:\RIPs\04 - Roshian. Kado Toku.wav

Peak level 94.9 % Extraction speed 13.6 X Track quality 100.0 % Test CRC A7EB330D Copy CRC A7EB330D Track not present in AccurateRip database Copy OK

Track 5

Filename C:\RIPs\05 - Kyarakuta Toku.wav

Peak level 96.5 % Extraction speed 14.3 X Track quality 100.0 % Test CRC 543C1828 Copy CRC 543C1828 Track not present in AccurateRip database Copy OK

Track 6

Filename C:\RIPs\06 - Toku on CD ~ Ending.wav

Peak level 89.8 % Extraction speed 13.8 X Track quality 100.0 % Test CRC 9BE762C9 Copy CRC 9BE762C9 Track not present in AccurateRip database Copy OK

Track 7

Filename C:\RIPs\07 - Follow Me!! (Off Vocal).wav

Pre-gap length 0:00:02.00

Peak level 98.9 % Extraction speed 14.0 X Track quality 100.0 % Test CRC 4BAA98CE Copy CRC 4BAA98CE Track not present in AccurateRip database Copy OK

None of the tracks are present in the AccurateRip database

No errors occurred

End of status report

---- CUETools DB Plugin V2.1.4

[CTDB TOCID: s1W_RPAVsFGxh9nOlsOKQdcK6gw-] disk not present in databaseSubmit result: s1W_RPAVsFGxh9nOlsOKQdcK6gw- has been uploaded

==== Log checksum 6E4E8890C31979B454AA4BE2ACE01549767EADCF6A7BC806DD8A59628FC919C8 ====
</div>
</div>
</div>
</div>
</div>
[spoiler="2006 - Character CD 2 [KDCA-0079]"]
Character CD 2
Список треков:
01. Pride of the Rose [4:46]
02. Dorama (Kindan no Hiyaku) [17:18]
03. Toku on CD ~ Opening [2:31]
04. Roshian. Kado Toku [15:04]
05. Kyarakuta Toku [5:15]
06. Toku on CD ~ Ending [5:02]
07. Pride of the Rose (Off Vocal) [4:46]Official DR value: DR12
Проверка:
<div class="post-box">
<div class="sp-wrap">
<div class="sp-head folded">Открыть</div>
<div class="sp-body">
<div class="sp-wrap">
<div class="sp-head folded">ЕАС Лог</div>
<div class="sp-body">

Exact Audio Copy V1.0 beta 3 from 29. August 2011

EAC extraction logfile from 5. December 2012, 23:09

- / Zero no Tsukaima Character CD 2

Used drive : PLEXTOR CD-R PREMIUM2 Adapter: 0 ID: 0

Read mode : SecureUtilize accurate stream : YesDefeat audio cache : YesMake use of C2 pointers : No

Read offset correction : 30Overread into Lead-In and Lead-Out : YesFill up missing offset samples with silence : YesDelete leading and trailing silent blocks : NoNull samples used in CRC calculations : YesUsed interface : Native Win32 interface for Win NT & 2000Gap handling : Appended to previous track

Used output format : User Defined EncoderSelected bitrate : 1024 kBit/sQuality : HighAdd ID3 tag : NoCommand line compressor : C:\Program Files (x86)\Exact Audio Copy\Flac\flac.exeAdditional command line options : -V -8 -T "Genre=%genre%" -T "Artist=%artist%" -T "Title=%title%" -T "Album=%albumtitle%" -T "Date=%year%" -T "Tracknumber=%tracknr%" -T "Comment=%comment%" %source%

TOC of the extracted CD

Track | Start | Length | Start sector | End sector --------------------------------------------------------- 1 | 0:00.00 | 4:46.07 | 0 | 21456 2 | 4:46.07 | 17:17.55 | 21457 | 99286 3 | 22:03.62 | 2:30.72 | 99287 | 110608 4 | 24:34.59 | 15:03.44 | 110609 | 178377 5 | 39:38.28 | 5:14.63 | 178378 | 201990 6 | 44:53.16 | 5:02.01 | 201991 | 224641 7 | 49:55.17 | 4:45.74 | 224642 | 246090

Track 1

Filename C:\RIPs\01 - Pride of the Rose.wav

Pre-gap length 0:00:02.00

Peak level 99.5 % Extraction speed 8.9 X Track quality 100.0 % Test CRC D2367472 Copy CRC D2367472 Track not present in AccurateRip database Copy OK

Track 2

Filename C:\RIPs\02 - Dorama (Kindan no Hiyaku).wav

Peak level 100.0 % Extraction speed 11.3 X Track quality 100.0 % Test CRC F67971AE Copy CRC F67971AE Track not present in AccurateRip database Copy OK

Track 3

Filename C:\RIPs\03 - Toku on CD ~ Opening.wav

Pre-gap length 0:00:02.00

Peak level 93.8 % Extraction speed 11.5 X Track quality 100.0 % Test CRC A5C97222 Copy CRC A5C97222 Track not present in AccurateRip database Copy OK

Track 4

Filename C:\RIPs\04 - Roshian. Kado Toku.wav

Peak level 91.3 % Extraction speed 14.0 X Track quality 100.0 % Test CRC 57B18FC1 Copy CRC 57B18FC1 Track not present in AccurateRip database Copy OK

Track 5

Filename C:\RIPs\05 - Kyarakuta Toku.wav

Peak level 94.3 % Extraction speed 13.9 X Track quality 100.0 % Test CRC 2953E1C6 Copy CRC 2953E1C6 Track not present in AccurateRip database Copy OK

Track 6

Filename C:\RIPs\06 - Toku on CD ~ Ending.wav

Peak level 78.4 % Extraction speed 14.1 X Track quality 100.0 % Test CRC B071D3B4 Copy CRC B071D3B4 Track not present in AccurateRip database Copy OK

Track 7

Filename C:\RIPs\07 - Pride of the Rose (Off Vocal).wav

Pre-gap length 0:00:02.00

Peak level 98.8 % Extraction speed 14.1 X Track quality 100.0 % Test CRC 6AA072FB Copy CRC 6AA072FB Track not present in AccurateRip database Copy OK

None of the tracks are present in the AccurateRip database

No errors occurred

End of status report

---- CUETools DB Plugin V2.1.4

[CTDB TOCID: sg89Y64LC4fb0FSc0CeHtv5_S70-] foundSubmit result: already submittedTrack | CTDB Status 1 | (1/1) Accurately ripped 2 | (1/1) Accurately ripped 3 | (1/1) Accurately ripped 4 | (1/1) Accurately ripped 5 | (1/1) Accurately ripped 6 | (1/1) Accurately ripped 7 | (1/1) Accurately ripped

==== Log checksum AE1FA04A5A9384AADE4320E473E76FA31B25C7CCDB1F14F6E9B11F932E012AEA ====
[/spoiler]
</div>
</div>
</div>
</div>
</div>
[spoiler="2006 - Character CD 3 [KDCA-0080]"]
Character CD 3
Список треков:
01. Tsubasa [4:13]
02. Anataga Hoshi Kunai [4:39]
03. Dorama (Hyouhen no Neko Mimi) [13:10]
04. Tsubasa (Off Vocal) [4:12]
05. Anataga Hoshi Kunai (Off Vocal) [4:37]Official DR value: DR9

Проверка:
<div class="post-box">
<div class="sp-wrap">
<div class="sp-head folded">Открыть</div>
<div class="sp-body">
<div class="sp-wrap">
<div class="sp-head folded">ЕАС Лог</div>
<div class="sp-body">

Exact Audio Copy V1.0 beta 3 from 29. August 2011

EAC extraction logfile from 5. December 2012, 22:30

- / Zero no Tsukaima Character CD 3

Used drive : PLEXTOR CD-R PREMIUM2 Adapter: 0 ID: 0

Read mode : SecureUtilize accurate stream : YesDefeat audio cache : YesMake use of C2 pointers : No

Read offset correction : 30Overread into Lead-In and Lead-Out : YesFill up missing offset samples with silence : YesDelete leading and trailing silent blocks : NoNull samples used in CRC calculations : YesUsed interface : Native Win32 interface for Win NT & 2000Gap handling : Appended to previous track

Used output format : User Defined EncoderSelected bitrate : 1024 kBit/sQuality : HighAdd ID3 tag : NoCommand line compressor : C:\Program Files (x86)\Exact Audio Copy\Flac\flac.exeAdditional command line options : -V -8 -T "Genre=%genre%" -T "Artist=%artist%" -T "Title=%title%" -T "Album=%albumtitle%" -T "Date=%year%" -T "Tracknumber=%tracknr%" -T "Comment=%comment%" %source%

TOC of the extracted CD

Track | Start | Length | Start sector | End sector --------------------------------------------------------- 1 | 0:00.00 | 4:12.42 | 0 | 18941 2 | 4:12.42 | 4:38.63 | 18942 | 39854 3 | 8:51.30 | 13:10.17 | 39855 | 99121 4 | 22:01.47 | 4:12.23 | 99122 | 118044 5 | 26:13.70 | 4:37.04 | 118045 | 138823

Track 1

Filename C:\RIPs\01 - Tsubasa.wav

Pre-gap length 0:00:02.00

Peak level 99.5 % Extraction speed 8.8 X Track quality 100.0 % Test CRC 1FA3BECE Copy CRC 1FA3BECE Track not present in AccurateRip database Copy OK

Track 2

Filename C:\RIPs\02 - Anataga Hoshi Kunai.wav

Pre-gap length 0:00:02.00

Peak level 91.0 % Extraction speed 9.7 X Track quality 100.0 % Test CRC EFA2A6B2 Copy CRC EFA2A6B2 Track not present in AccurateRip database Copy OK

Track 3

Filename C:\RIPs\03 - Dorama (Hyouhen no Neko Mimi).wav

Pre-gap length 0:00:02.00

Peak level 100.0 % Extraction speed 11.6 X Track quality 100.0 % Test CRC 94B4D859 Copy CRC 94B4D859 Track not present in AccurateRip database Copy OK

Track 4

Filename C:\RIPs\04 - Tsubasa (Off Vocal).wav

Pre-gap length 0:00:02.00

Peak level 100.0 % Extraction speed 11.3 X Track quality 99.9 % Test CRC 0796B851 Copy CRC 0796B851 Track not present in AccurateRip database Copy OK

Track 5

Filename C:\RIPs\05 - Anataga Hoshi Kunai (Off Vocal).wav

Pre-gap length 0:00:02.00

Peak level 89.8 % Extraction speed 12.9 X Track quality 100.0 % Test CRC BAE3646B Copy CRC BAE3646B Track not present in AccurateRip database Copy OK

None of the tracks are present in the AccurateRip database

No errors occurred

End of status report

---- CUETools DB Plugin V2.1.4

[CTDB TOCID: EqaBmFwyni1vgp7NeBi7XcOalao-] disk not present in databaseSubmit result: EqaBmFwyni1vgp7NeBi7XcOalao- has been uploaded

==== Log checksum 59A832BA719BB994B8DBC1312F8ECEB7F2310AA7C3613B6D6C7F11CBA1F49266 ====
[/spoiler]
</div>
</div>
</div>
</div>
</div>
[spoiler="2006 - Character CD 4 [KDCA-0081]"]
Character CD 4
Список треков:
01. Hitomi no Nakano Yuuyake ~My Truth~ [4:16]
02. Chikai no Aria [4:38]
03. Dorama (O Shinobi no Oujo) [13:48]
04. Hitomi no Nakano Yuuyake ~My Truth~ (Off Vocal) [4:15]
05. Chikai no Aria (Off Vocal) [4:37]Official DR value: DR9

Проверка:
<div class="post-box">
<div class="sp-wrap">
<div class="sp-head folded">Открыть</div>
<div class="sp-body">
<div class="sp-wrap">
<div class="sp-head folded">ЕАС Лог</div>
<div class="sp-body">

Exact Audio Copy V1.0 beta 3 from 29. August 2011

EAC extraction logfile from 5. December 2012, 23:44

- / Zero no Tsukaima Character CD 4

Used drive : PLEXTOR CD-R PREMIUM2 Adapter: 0 ID: 0

Read mode : SecureUtilize accurate stream : YesDefeat audio cache : YesMake use of C2 pointers : No

Read offset correction : 30Overread into Lead-In and Lead-Out : YesFill up missing offset samples with silence : YesDelete leading and trailing silent blocks : NoNull samples used in CRC calculations : YesUsed interface : Native Win32 interface for Win NT & 2000Gap handling : Appended to previous track

Used output format : User Defined EncoderSelected bitrate : 1024 kBit/sQuality : HighAdd ID3 tag : NoCommand line compressor : C:\Program Files (x86)\Exact Audio Copy\Flac\flac.exeAdditional command line options : -V -8 -T "Genre=%genre%" -T "Artist=%artist%" -T "Title=%title%" -T "Album=%albumtitle%" -T "Date=%year%" -T "Tracknumber=%tracknr%" -T "Comment=%comment%" %source%

TOC of the extracted CD

Track | Start | Length | Start sector | End sector --------------------------------------------------------- 1 | 0:00.00 | 4:15.55 | 0 | 19179 2 | 4:15.55 | 4:38.15 | 19180 | 40044 3 | 8:53.70 | 13:47.72 | 40045 | 102141 4 | 22:41.67 | 4:15.35 | 102142 | 121301 5 | 26:57.27 | 4:36.43 | 121302 | 142044

Track 1

Filename C:\RIPs\01 - Hitomi no Nakano Yuuyake ~My Truth~.wav

Pre-gap length 0:00:02.00

Peak level 100.0 % Extraction speed 8.9 X Track quality 100.0 % Test CRC 1A07830F Copy CRC 1A07830F Track not present in AccurateRip database Copy OK

Track 2

Filename C:\RIPs\02 - Chikai no Aria.wav

Pre-gap length 0:00:03.00

Peak level 99.9 % Extraction speed 9.1 X Track quality 99.9 % Test CRC 45447769 Copy CRC 45447769 Track not present in AccurateRip database Copy OK

Track 3

Filename C:\RIPs\03 - Dorama (O Shinobi no Oujo).wav

Pre-gap length 0:00:02.00

Peak level 99.9 % Extraction speed 11.7 X Track quality 100.0 % Test CRC 7BA0441D Copy CRC 7BA0441D Track not present in AccurateRip database Copy OK

Track 4

Filename C:\RIPs\04 - Hitomi no Nakano Yuuyake ~My Truth~ (Off Vocal).wav

Pre-gap length 0:00:03.00

Peak level 90.9 % Extraction speed 12.4 X Track quality 100.0 % Test CRC 61599C7A Copy CRC 61599C7A Track not present in AccurateRip database Copy OK

Track 5

Filename C:\RIPs\05 - Chikai no Aria (Off Vocal).wav

Pre-gap length 0:00:03.00

Peak level 97.1 % Extraction speed 12.0 X Track quality 99.9 % Test CRC C51326A6 Copy CRC C51326A6 Track not present in AccurateRip database Copy OK

None of the tracks are present in the AccurateRip database

No errors occurred

End of status report

---- CUETools DB Plugin V2.1.4

[CTDB TOCID: nSWxpTe05IMfpcbJyYDRs56f1f8-] disk not present in databaseSubmit result: nSWxpTe05IMfpcbJyYDRs56f1f8- has been uploaded

==== Log checksum 408C7843AAA98EC20209A899C0AC0E77B4DBDA394E4002BA1DF10F481822448B ====
[/spoiler]
</div>
</div>
</div>
</div>
</div>
[spoiler="2006 - OST [KDCA-0076]"]
OST
Список треков:
01. First Kiss ~TV Version~ [1:32]
02. Gandaruvu [2:04]
03. Good Friends [2:04]
04. Ukiuki Kibun [1:37]
05. Peaceful Time [2:16]
06. Seiso [1:48]
07. Cheerful Lady [1:36]
08. Ruizu [2:09]
09. Nice Days [1:36]
10. Haji Rai [1:07]
11. Sensual Fire [1:59]
12. Spy [1:33]
13. Uneasiness [1:48]
14. Soil Monster [1:35]
15. Akujo [1:45]
16. Nasake no Hibi [1:51]
17. Baka ni Fukarete [1:08]
18. Battle in Bar [1:42]
19. Amorous Old Man [1:30]
20. Haunted House [1:20]
21. Koi no Yokan [1:27]
22. Akogare [1:36]
23. Ketsui [1:46]
24. Yuuki [3:07]
25. Secret [1:28]
26. Crisis [1:40]
27. Higher Sky [1:31]
28. Futatsu no Gatsu [1:48]
29. Yasashisa [2:34]
30. Happy Things [2:07]
31. Passed Away [2:07]
32. Setsuna I Omoi [2:08]
33. Kiretsu [1:40]
34. Empty [1:40]
35. Noble [1:45]
36. Inori [1:56]
37. Butoukai [1:41]
38. Palace [1:35]
39. Common People [1:41]
40. Honto no Kimoch ~TV Version~ [1:32]Official DR value: DR10
Проверка:
<div class="post-box">
<div class="sp-wrap">
<div class="sp-head folded">Открыть</div>
<div class="sp-body">
<div class="sp-wrap">
<div class="sp-head folded">ЕАС Лог</div>
<div class="sp-body">

Exact Audio Copy V1.0 beta 3 from 29. August 2011

EAC extraction logfile from 6. December 2012, 0:52

- / Zero No Tsukaima OST

Used drive : PLEXTOR CD-R PREMIUM2 Adapter: 0 ID: 0

Read mode : SecureUtilize accurate stream : YesDefeat audio cache : YesMake use of C2 pointers : No

Read offset correction : 30Overread into Lead-In and Lead-Out : YesFill up missing offset samples with silence : YesDelete leading and trailing silent blocks : NoNull samples used in CRC calculations : YesUsed interface : Native Win32 interface for Win NT & 2000Gap handling : Appended to previous track

Used output format : User Defined EncoderSelected bitrate : 1024 kBit/sQuality : HighAdd ID3 tag : NoCommand line compressor : C:\Program Files (x86)\Exact Audio Copy\Flac\flac.exeAdditional command line options : -V -8 -T "Genre=%genre%" -T "Artist=%artist%" -T "Title=%title%" -T "Album=%albumtitle%" -T "Date=%year%" -T "Tracknumber=%tracknr%" -T "Comment=%comment%" %source%

TOC of the extracted CD

Track | Start | Length | Start sector | End sector --------------------------------------------------------- 1 | 0:00.00 | 1:31.73 | 0 | 6897 2 | 1:31.73 | 2:03.71 | 6898 | 16193 3 | 3:35.69 | 2:03.38 | 16194 | 25456 4 | 5:39.32 | 1:36.56 | 25457 | 32712 5 | 7:16.13 | 2:15.38 | 32713 | 42875 6 | 9:31.51 | 1:47.49 | 42876 | 50949 7 | 11:19.25 | 1:35.43 | 50950 | 58117 8 | 12:54.68 | 2:08.46 | 58118 | 67763 9 | 15:03.39 | 1:35.69 | 67764 | 74957 10 | 16:39.33 | 1:06.73 | 74958 | 79980 11 | 17:46.31 | 1:59.00 | 79981 | 88905 12 | 19:45.31 | 1:33.10 | 88906 | 95890 13 | 21:18.41 | 1:47.62 | 95891 | 103977 14 | 23:06.28 | 1:35.36 | 103978 | 111138 15 | 24:41.64 | 1:44.47 | 111139 | 118985 16 | 26:26.36 | 1:50.54 | 118986 | 127289 17 | 28:17.15 | 1:08.35 | 127290 | 132424 18 | 29:25.50 | 1:42.12 | 132425 | 140086 19 | 31:07.62 | 1:30.01 | 140087 | 146837 20 | 32:37.63 | 1:19.74 | 146838 | 152836 21 | 33:57.62 | 1:26.54 | 152837 | 159340 22 | 35:24.41 | 1:35.69 | 159341 | 166534 23 | 37:00.35 | 1:46.33 | 166535 | 174517 24 | 38:46.68 | 3:07.12 | 174518 | 188554 25 | 41:54.05 | 1:27.70 | 188555 | 195149 26 | 43:22.00 | 1:40.13 | 195150 | 202662 27 | 45:02.13 | 1:31.16 | 202663 | 209503 28 | 46:33.29 | 1:48.14 | 209504 | 217617 29 | 48:21.43 | 2:34.03 | 217618 | 229170 30 | 50:55.46 | 2:06.52 | 229171 | 238672 31 | 53:02.23 | 2:07.19 | 238673 | 248216 32 | 55:09.42 | 2:07.66 | 248217 | 257807 33 | 57:17.33 | 1:40.28 | 257808 | 265335 34 | 58:57.61 | 1:40.15 | 265336 | 272850 35 | 60:38.01 | 1:45.23 | 272851 | 280748 36 | 62:23.24 | 1:55.43 | 280749 | 289416 37 | 64:18.67 | 1:41.03 | 289417 | 296994 38 | 65:59.70 | 1:35.04 | 296995 | 304123 39 | 67:34.74 | 1:41.03 | 304124 | 311701 40 | 69:16.02 | 1:31.54 | 311702 | 318580

Track 1

Filename C:\RIPs\01 - First Kiss ~Tv Version~.wav

Pre-gap length 0:00:02.00

Peak level 67.5 % Extraction speed 6.7 X Track quality 99.8 % Test CRC 0E894977 Copy CRC 0E894977 Accurately ripped (confidence 1) [05DB8645] (AR v1) Copy OK

Track 2

Filename C:\RIPs\02 - Gandaruvu.wav

Pre-gap length 0:00:02.08

Peak level 99.8 % Extraction speed 8.4 X Track quality 100.0 % Test CRC 8A0230F3 Copy CRC 8A0230F3 Accurately ripped (confidence 1) [83614DDF] (AR v1) Copy OK

Track 3

Filename C:\RIPs\03 - Good Friends.wav

Pre-gap length 0:00:01.45

Peak level 99.8 % Extraction speed 7.7 X Track quality 99.9 % Test CRC 42481724 Copy CRC 42481724 Accurately ripped (confidence 1) [CB56EA54] (AR v1) Copy OK

Track 4

Filename C:\RIPs\04 - Ukiuki Kibun.wav

Pre-gap length 0:00:01.45

Peak level 99.8 % Extraction speed 8.7 X Track quality 100.0 % Test CRC 3E1D34BD Copy CRC 3E1D34BD Accurately ripped (confidence 1) [A323C3DD] (AR v1) Copy OK

Track 5

Filename C:\RIPs\05 - Peaceful Time.wav

Pre-gap length 0:00:01.07

Peak level 96.7 % Extraction speed 9.5 X Track quality 100.0 % Test CRC 44ACE701 Copy CRC 44ACE701 Accurately ripped (confidence 1) [5AD7F836] (AR v1) Copy OK

Track 6

Filename C:\RIPs\06 - Seiso.wav

Pre-gap length 0:00:01.45

Peak level 99.8 % Extraction speed 9.4 X Track quality 100.0 % Test CRC A2BBA41E Copy CRC A2BBA41E Accurately ripped (confidence 1) [2E4C06EB] (AR v1) Copy OK

Track 7

Filename C:\RIPs\07 - Cheerful Lady.wav

Pre-gap length 0:00:01.45

Peak level 99.8 % Extraction speed 8.1 X Track quality 99.8 % Test CRC E1B52AC4 Copy CRC E1B52AC4 Accurately ripped (confidence 1) [17C0A292] (AR v1) Copy OK

Track 8

Filename C:\RIPs\08 - Ruizu.wav

Pre-gap length 0:00:01.45

Peak level 99.8 % Extraction speed 10.2 X Track quality 100.0 % Test CRC 41A929D3 Copy CRC 41A929D3 Accurately ripped (confidence 1) [04681165] (AR v1) Copy OK

Track 9

Filename C:\RIPs\09 - Nice Days.wav

Pre-gap length 0:00:01.45

Peak level 99.8 % Extraction speed 8.5 X Track quality 99.8 % Test CRC BAEF6493 Copy CRC BAEF6493 Accurately ripped (confidence 1) [F8DB55AF] (AR v1) Copy OK

Track 10

Filename C:\RIPs\10 - Haji Rai.wav

Pre-gap length 0:00:01.45

Peak level 67.2 % Extraction speed 9.3 X Track quality 100.0 % Test CRC D40F12BB Copy CRC D40F12BB Accurately ripped (confidence 1) [4D6DBAA4] (AR v1) Copy OK

Track 11

Filename C:\RIPs\11 - Sensual Fire.wav

Pre-gap length 0:00:01.45

Peak level 84.0 % Extraction speed 10.6 X Track quality 100.0 % Test CRC 5FFB2349 Copy CRC 5FFB2349 Accurately ripped (confidence 1) [0AC103F7] (AR v1) Copy OK

Track 12

Filename C:\RIPs\12 - Spy.wav

Pre-gap length 0:00:01.45

Peak level 99.8 % Extraction speed 10.3 X Track quality 100.0 % Test CRC 564C6646 Copy CRC 564C6646 Accurately ripped (confidence 1) [89EA61AB] (AR v1) Copy OK

Track 13

Filename C:\RIPs\13 - Uneasiness.wav

Pre-gap length 0:00:01.45

Peak level 91.5 % Extraction speed 10.8 X Track quality 100.0 % Test CRC CE09869E Copy CRC CE09869E Accurately ripped (confidence 1) [C282192B] (AR v1) Copy OK

Track 14

Filename C:\RIPs\14 - Soil Monster.wav

Pre-gap length 0:00:01.45

Peak level 99.8 % Extraction speed 10.8 X Track quality 100.0 % Test CRC 11E76B66 Copy CRC 11E76B66 Accurately ripped (confidence 1) [B0989145] (AR v1) Copy OK

Track 15

Filename C:\RIPs\15 - Akujo.wav

Pre-gap length 0:00:01.45

Peak level 90.6 % Extraction speed 11.1 X Track quality 100.0 % Test CRC 952CCFB9 Copy CRC 952CCFB9 Accurately ripped (confidence 1) [41522103] (AR v1) Copy OK

Track 16

Filename C:\RIPs\16 - Nasake no Hibi.wav

Pre-gap length 0:00:01.45

Peak level 99.8 % Extraction speed 11.4 X Track quality 100.0 % Test CRC DF97302C Copy CRC DF97302C Accurately ripped (confidence 1) [A089C23C] (AR v1) Copy OK

Track 17

Filename C:\RIPs\17 - Baka ni Fukarete.wav

Pre-gap length 0:00:01.45

Peak level 99.8 % Extraction speed 10.4 X Track quality 100.0 % Test CRC 6E101F80 Copy CRC 6E101F80 Accurately ripped (confidence 1) [DDF54F0C] (AR v1) Copy OK

Track 18

Filename C:\RIPs\18 - Battle in Bar.wav

Pre-gap length 0:00:01.45

Peak level 99.8 % Extraction speed 11.5 X Track quality 100.0 % Test CRC 1D490B7C Copy CRC 1D490B7C Accurately ripped (confidence 1) [1A307409] (AR v1) Copy OK

Track 19

Filename C:\RIPs\19 - Amorous Old Man.wav

Pre-gap length 0:00:01.45

Peak level 81.6 % Extraction speed 11.3 X Track quality 100.0 % Test CRC 5A0743EB Copy CRC 5A0743EB Accurately ripped (confidence 1) [48D3F48A] (AR v1) Copy OK

Track 20

Filename C:\RIPs\20 - Haunted House.wav

Pre-gap length 0:00:01.45

Peak level 99.8 % Extraction speed 9.1 X Track quality 99.8 % Test CRC 57EEE033 Copy CRC 57EEE033 Accurately ripped (confidence 1) [F8E60AD3] (AR v1) Copy OK

Track 21

Filename C:\RIPs\21 - Koi no Yokan.wav

Pre-gap length 0:00:01.45

Peak level 99.8 % Extraction speed 11.4 X Track quality 100.0 % Test CRC BCFD5999 Copy CRC BCFD5999 Accurately ripped (confidence 1) [8C77B868] (AR v1) Copy OK

Track 22

Filename C:\RIPs\22 - Akogare.wav

Pre-gap length 0:00:01.45

Peak level 86.3 % Extraction speed 9.8 X Track quality 99.8 % Test CRC 2B11038B Copy CRC 2B11038B Accurately ripped (confidence 1) [B920F11B] (AR v1) Copy OK

Track 23

Filename C:\RIPs\23 - Ketsui.wav

Pre-gap length 0:00:01.45

Peak level 99.8 % Extraction speed 12.0 X Track quality 100.0 % Test CRC 000E6FF5 Copy CRC 000E6FF5 Accurately ripped (confidence 1) [93B39EF8] (AR v1) Copy OK

Track 24

Filename C:\RIPs\24 - Yuuki.wav

Pre-gap length 0:00:01.45

Peak level 99.8 % Extraction speed 13.1 X Track quality 100.0 % Test CRC D1F211EC Copy CRC D1F211EC Accurately ripped (confidence 1) [5F45A183] (AR v1) Copy OK

Track 25

Filename C:\RIPs\25 - Secret.wav

Pre-gap length 0:00:01.45

Peak level 99.8 % Extraction speed 9.4 X Track quality 99.8 % Test CRC C7B29168 Copy CRC C7B29168 Accurately ripped (confidence 1) [A2876539] (AR v1) Copy OK

Track 26

Filename C:\RIPs\26 - Crisis.wav

Pre-gap length 0:00:01.45

Peak level 99.8 % Extraction speed 11.9 X Track quality 100.0 % Test CRC 774D5288 Copy CRC 774D5288 Accurately ripped (confidence 1) [63102A8E] (AR v1) Copy OK

Track 27

Filename C:\RIPs\27 - Higher Sky.wav

Pre-gap length 0:00:01.45

Peak level 99.8 % Extraction speed 11.8 X Track quality 100.0 % Test CRC D79A5566 Copy CRC D79A5566 Accurately ripped (confidence 1) [0D905540] (AR v1) Copy OK

Track 28

Filename C:\RIPs\28 - Futatsu no Gatsu.wav

Pre-gap length 0:00:01.45

Peak level 92.3 % Extraction speed 10.2 X Track quality 99.9 % Test CRC 5337BF3B Copy CRC 5337BF3B Accurately ripped (confidence 1) [C0EF08F6] (AR v1) Copy OK

Track 29

Filename C:\RIPs\29 - Yasashisa.wav

Pre-gap length 0:00:01.45

Peak level 91.5 % Extraction speed 11.4 X Track quality 99.9 % Test CRC 988EDFA7 Copy CRC 988EDFA7 Accurately ripped (confidence 1) [646DD91C] (AR v1) Copy OK

Track 30

Filename C:\RIPs\30 - Happy Things.wav

Pre-gap length 0:00:01.45

Peak level 86.5 % Extraction speed 12.6 X Track quality 100.0 % Test CRC 5BF13A2B Copy CRC 5BF13A2B Accurately ripped (confidence 1) [236C87BE] (AR v1) Copy OK

Track 31

Filename C:\RIPs\31 - Passed Away.wav

Pre-gap length 0:00:01.45

Peak level 99.8 % Extraction speed 12.7 X Track quality 100.0 % Test CRC 7332B7C8 Copy CRC 7332B7C8 Accurately ripped (confidence 1) [C93D437F] (AR v1) Copy OK

Track 32

Filename C:\RIPs\32 - Setsuna I Omoi.wav

Pre-gap length 0:00:01.45

Peak level 99.8 % Extraction speed 12.8 X Track quality 100.0 % Test CRC 338F7F0B Copy CRC 338F7F0B Accurately ripped (confidence 1) [5B52C9AA] (AR v1) Copy OK

Track 33

Filename C:\RIPs\33 - Kiretsu.wav

Pre-gap length 0:00:01.45

Peak level 98.6 % Extraction speed 12.2 X Track quality 100.0 % Test CRC 130ECDF0 Copy CRC 130ECDF0 Accurately ripped (confidence 1) [3B2FC851] (AR v1) Copy OK

Track 34

Filename C:\RIPs\34 - Empty.wav

Pre-gap length 0:00:01.45

Peak level 96.2 % Extraction speed 12.1 X Track quality 100.0 % Test CRC 6A295FDB Copy CRC 6A295FDB Accurately ripped (confidence 1) [4B9F19B7] (AR v1) Copy OK

Track 35

Filename C:\RIPs\35 - Noble.wav

Pre-gap length 0:00:01.45

Peak level 99.8 % Extraction speed 12.4 X Track quality 100.0 % Test CRC 1BED7BBA Copy CRC 1BED7BBA Accurately ripped (confidence 1) [01A49824] (AR v1) Copy OK

Track 36

Filename C:\RIPs\36 - Inori.wav

Pre-gap length 0:00:01.45

Peak level 99.8 % Extraction speed 12.7 X Track quality 100.0 % Test CRC 26663C8A Copy CRC 26663C8A Accurately ripped (confidence 1) [2D66C13B] (AR v1) Copy OK

Track 37

Filename C:\RIPs\37 - Butoukai.wav

Pre-gap length 0:00:01.45

Peak level 99.8 % Extraction speed 12.3 X Track quality 100.0 % Test CRC 7D1F9D52 Copy CRC 7D1F9D52 Accurately ripped (confidence 1) [86758807] (AR v1) Copy OK

Track 38

Filename C:\RIPs\38 - Palace.wav

Pre-gap length 0:00:01.45

Peak level 99.8 % Extraction speed 12.3 X Track quality 100.0 % Test CRC DB2E5548 Copy CRC DB2E5548 Accurately ripped (confidence 1) [BE0CB703] (AR v1) Copy OK

Track 39

Filename C:\RIPs\39 - Common People.wav

Pre-gap length 0:00:01.45

Peak level 99.8 % Extraction speed 12.5 X Track quality 100.0 % Test CRC A3D71E87 Copy CRC A3D71E87 Accurately ripped (confidence 1) [C0AA24FC] (AR v1) Copy OK

Track 40

Filename C:\RIPs\40 - Honto no Kimoch ~TV Version~.wav

Pre-gap length 0:00:02.08

Peak level 82.1 % Extraction speed 12.3 X Track quality 100.0 % Test CRC 19FDC567 Copy CRC 19FDC567 Accurately ripped (confidence 1) [FE8ED1E7] (AR v1) Copy OK

All tracks accurately ripped

No errors occurred

End of status report

---- CUETools DB Plugin V2.1.4

[CTDB TOCID: S3r9xtv_ZW31BGg9bgxpv4eygMM-] foundSubmit result: S3r9xtv_ZW31BGg9bgxpv4eygMM- has been confirmedTrack | CTDB Status 1 | (1/1) Accurately ripped 2 | (1/1) Accurately ripped 3 | (1/1) Accurately ripped 4 | (1/1) Accurately ripped 5 | (1/1) Accurately ripped 6 | (1/1) Accurately ripped 7 | (1/1) Accurately ripped 8 | (1/1) Accurately ripped 9 | (1/1) Accurately ripped 10 | (1/1) Accurately ripped 11 | (1/1) Accurately ripped 12 | (1/1) Accurately ripped 13 | (1/1) Accurately ripped 14 | (1/1) Accurately ripped 15 | (1/1) Accurately ripped 16 | (1/1) Accurately ripped 17 | (1/1) Accurately ripped 18 | (1/1) Accurately ripped 19 | (1/1) Accurately ripped 20 | (1/1) Accurately ripped 21 | (1/1) Accurately ripped 22 | (1/1) Accurately ripped 23 | (1/1) Accurately ripped 24 | (1/1) Accurately ripped 25 | (1/1) Accurately ripped 26 | (1/1) Accurately ripped 27 | (1/1) Accurately ripped 28 | (1/1) Accurately ripped 29 | (1/1) Accurately ripped 30 | (1/1) Accurately ripped 31 | (1/1) Accurately ripped 32 | (1/1) Accurately ripped 33 | (1/1) Accurately ripped 34 | (1/1) Accurately ripped 35 | (1/1) Accurately ripped 36 | (1/1) Accurately ripped 37 | (1/1) Accurately ripped 38 | (1/1) Accurately ripped 39 | (1/1) Accurately ripped 40 | (1/1) Accurately ripped

==== Log checksum 0B40515DC69AA4FFBEF8A387850662FB5BF1B0A78624C40CE1C75A4F41BF0FBF ====
[/spoiler]
</div>
</div>
</div>
</div>
</div>
[spoiler="2007 - Character CD 1 [SCDC-00582]"]
Character CD 1
Список треков:
01. Mirai ni Yume wo Todoke ni Ikou [4:17]
02. Mahou no Chichi Obi [13:29]
03. Ura Zero no Tsukaima. Toku on CD 1 Kaime [9:08]
04. Mirai ni Yume wo Todoke ni Ikou (Off Vocal) [4:16]Official DR value: DR10
Проверка:
<div class="post-box">
<div class="sp-wrap">
<div class="sp-head folded">Открыть</div>
<div class="sp-body">
<div class="sp-wrap">
<div class="sp-head folded">ЕАС Лог</div>
<div class="sp-body">

Exact Audio Copy V1.0 beta 3 from 29. August 2011

EAC extraction logfile from 6. December 2012, 21:45

- / Zero no Tsukaima 2 Character CD 1

Used drive : PLEXTOR CD-R PREMIUM2 Adapter: 0 ID: 0

Read mode : SecureUtilize accurate stream : YesDefeat audio cache : YesMake use of C2 pointers : No

Read offset correction : 30Overread into Lead-In and Lead-Out : YesFill up missing offset samples with silence : YesDelete leading and trailing silent blocks : NoNull samples used in CRC calculations : YesUsed interface : Native Win32 interface for Win NT & 2000Gap handling : Appended to previous track

Used output format : User Defined EncoderSelected bitrate : 1024 kBit/sQuality : HighAdd ID3 tag : NoCommand line compressor : C:\Program Files (x86)\Exact Audio Copy\Flac\flac.exeAdditional command line options : -V -8 -T "Genre=%genre%" -T "Artist=%artist%" -T "Title=%title%" -T "Album=%albumtitle%" -T "Date=%year%" -T "Tracknumber=%tracknr%" -T "Comment=%comment%" %source%

TOC of the extracted CD

Track | Start | Length | Start sector | End sector --------------------------------------------------------- 1 | 0:00.00 | 4:17.35 | 0 | 19309 2 | 4:17.35 | 13:28.70 | 19310 | 79979 3 | 17:46.30 | 9:07.70 | 79980 | 121074 4 | 26:54.25 | 4:16.25 | 121075 | 140299

Track 1

Filename C:\RIPs\01 - Mirai ni Yume wo Todoke ni Ikou.wav

Pre-gap length 0:00:02.00

Peak level 96.6 % Extraction speed 8.8 X Track quality 100.0 % Test CRC 17255E37 Copy CRC 17255E37 Track not present in AccurateRip database Copy OK

Track 2

Filename C:\RIPs\02 - Mahou no Chichi Obi.wav

Pre-gap length 0:00:00.60

Peak level 98.8 % Extraction speed 10.9 X Track quality 100.0 % Test CRC 19691F62 Copy CRC 19691F62 Track not present in AccurateRip database Copy OK

Track 3

Filename C:\RIPs\03 - Ura Zero no Tsukaima. Toku on CD 1 Kaime.wav

Pre-gap length 0:00:00.65

Peak level 94.8 % Extraction speed 12.6 X Track quality 100.0 % Test CRC E7CDB913 Copy CRC E7CDB913 Track not present in AccurateRip database Copy OK

Track 4

Filename C:\RIPs\04 - Mirai ni Yume wo Todoke ni Ikou (Off Vocal).wav

Pre-gap length 0:00:01.66

Peak level 96.6 % Extraction speed 12.7 X Track quality 100.0 % Test CRC DCD6DC27 Copy CRC DCD6DC27 Track not present in AccurateRip database Copy OK

None of the tracks are present in the AccurateRip database

No errors occurred

End of status report

---- CUETools DB Plugin V2.1.4

[CTDB TOCID: pAzeX37jM52FaGfsJa4hVuZKKw0-] disk not present in databaseSubmit result: pAzeX37jM52FaGfsJa4hVuZKKw0- has been uploaded

==== Log checksum C08EC578007604FF8B3B04CC27C6BF490113DA4CC128D5215E29FEB517A5A3A1 ====
[/spoiler]
</div>
</div>
</div>
</div>
</div>
[spoiler="2007 - Character CD 2 [SCDC-00583]"]
Character CD 2
Список треков:
01. Kuressento no Inori [5:11]
02. Mori no Kakurenbo [11:55]
03. Ura Zero no Tsukaima. Toku on CD 2 Kaime [7:45]
04. Kuressento no Inori (Off Vocal) [5:10]Official DR value: DR11

Проверка:
<div class="post-box">
<div class="sp-wrap">
<div class="sp-head folded">Открыть</div>
<div class="sp-body">
<div class="sp-wrap">
<div class="sp-head folded">ЕАС Лог</div>
<div class="sp-body">

Exact Audio Copy V1.0 beta 3 from 29. August 2011

EAC extraction logfile from 6. December 2012, 22:42

- / Zero no Tsukaima 2 Character CD 2

Used drive : PLEXTOR CD-R PREMIUM2 Adapter: 0 ID: 0

Read mode : SecureUtilize accurate stream : YesDefeat audio cache : YesMake use of C2 pointers : No

Read offset correction : 30Overread into Lead-In and Lead-Out : YesFill up missing offset samples with silence : YesDelete leading and trailing silent blocks : NoNull samples used in CRC calculations : YesUsed interface : Native Win32 interface for Win NT & 2000Gap handling : Appended to previous track

Used output format : User Defined EncoderSelected bitrate : 1024 kBit/sQuality : HighAdd ID3 tag : NoCommand line compressor : C:\Program Files (x86)\Exact Audio Copy\Flac\flac.exeAdditional command line options : -V -8 -T "Genre=%genre%" -T "Artist=%artist%" -T "Title=%title%" -T "Album=%albumtitle%" -T "Date=%year%" -T "Tracknumber=%tracknr%" -T "Comment=%comment%" %source%

TOC of the extracted CD

Track | Start | Length | Start sector | End sector --------------------------------------------------------- 1 | 0:00.00 | 5:11.17 | 0 | 23341 2 | 5:11.17 | 11:54.60 | 23342 | 76951 3 | 17:06.02 | 7:44.48 | 76952 | 111799 4 | 24:50.50 | 5:10.07 | 111800 | 135056

Track 1

Filename C:\RIPs\01 - Kuressento no Inori.wav

Pre-gap length 0:00:02.00

Peak level 93.2 % Extraction speed 9.0 X Track quality 100.0 % Test CRC 5AECEB48 Copy CRC 5AECEB48 Track not present in AccurateRip database Copy OK

Track 2

Filename C:\RIPs\02 - Mori no Kakurenbo.wav

Pre-gap length 0:00:01.01

Peak level 98.6 % Extraction speed 10.6 X Track quality 99.9 % Test CRC 21C6EC23 Copy CRC 21C6EC23 Track not present in AccurateRip database Copy OK

Track 3

Filename C:\RIPs\03 - Ura Zero no Tsukaima. Toku on CD 2 Kaime.wav

Pre-gap length 0:00:01.06

Peak level 93.8 % Extraction speed 12.3 X Track quality 100.0 % Test CRC FAFDDA1A Copy CRC FAFDDA1A Track not present in AccurateRip database Copy OK

Track 4

Filename C:\RIPs\04 - Kuressento no Inori (Off Vocal).wav

Pre-gap length 0:00:02.01

Peak level 92.8 % Extraction speed 12.0 X Track quality 99.9 % Test CRC 12C39D54 Copy CRC 12C39D54 Track not present in AccurateRip database Copy OK

None of the tracks are present in the AccurateRip database

No errors occurred

End of status report

---- CUETools DB Plugin V2.1.4

[CTDB TOCID: nwgOICU6ExCkqzjfn3sMPTRzMyQ-] disk not present in databaseSubmit result: nwgOICU6ExCkqzjfn3sMPTRzMyQ- has been uploaded

==== Log checksum B461FFBDA7A98C56D7707EF3343FAAEC448D2D538DD275C2F5C6858911D72ED4 ====
[/spoiler]
</div>
</div>
</div>
</div>
</div>
[spoiler="2007 - Character CD 3 [SCDC-00584]"]
Character CD 3
Список треков:
01. Sora ga Kureta Okurimono [4:43]
02. Ruizu no Aijin [13:33]
03. Ura Zero no Tsukaima. Toku on CD 3 Kaime [7:34]
04. Sora ga Kureta Okurimono (Off Vocal) [4:42]Official DR value: DR11

Проверка:
<div class="post-box">
<div class="sp-wrap">
<div class="sp-head folded">Открыть</div>
<div class="sp-body">
<div class="sp-wrap">
<div class="sp-head folded">ЕАС Лог</div>
<div class="sp-body">

Exact Audio Copy V1.0 beta 3 from 29. August 2011

EAC extraction logfile from 6. December 2012, 23:12

- / Zero no Tsukaima 2 Character CD 3

Used drive : PLEXTOR CD-R PREMIUM2 Adapter: 0 ID: 0

Read mode : SecureUtilize accurate stream : YesDefeat audio cache : YesMake use of C2 pointers : No

Read offset correction : 30Overread into Lead-In and Lead-Out : YesFill up missing offset samples with silence : YesDelete leading and trailing silent blocks : NoNull samples used in CRC calculations : YesUsed interface : Native Win32 interface for Win NT & 2000Gap handling : Appended to previous track

Used output format : User Defined EncoderSelected bitrate : 1024 kBit/sQuality : HighAdd ID3 tag : NoCommand line compressor : C:\Program Files (x86)\Exact Audio Copy\Flac\flac.exeAdditional command line options : -V -8 -T "Genre=%genre%" -T "Artist=%artist%" -T "Title=%title%" -T "Album=%albumtitle%" -T "Date=%year%" -T "Tracknumber=%tracknr%" -T "Comment=%comment%" %source%

TOC of the extracted CD

Track | Start | Length | Start sector | End sector --------------------------------------------------------- 1 | 0:00.00 | 4:43.37 | 0 | 21261 2 | 4:43.37 | 13:32.50 | 21262 | 82211 3 | 18:16.12 | 7:33.60 | 82212 | 116246 4 | 25:49.72 | 4:42.30 | 116247 | 137426

Track 1

Filename C:\RIPs\01 - Sora ga Kureta Okurimono.wav

Pre-gap length 0:00:02.00

Peak level 87.0 % Extraction speed 8.4 X Track quality 99.9 % Test CRC B27D9233 Copy CRC B27D9233 Track not present in AccurateRip database Copy OK

Track 2

Filename C:\RIPs\02 - Ruizu no Aijin.wav

Pre-gap length 0:00:01.00

Peak level 98.2 % Extraction speed 10.9 X Track quality 100.0 % Test CRC 483642AD Copy CRC 483642AD Track not present in AccurateRip database Copy OK

Track 3

Filename C:\RIPs\03 - Ura Zero no Tsukaima. Toku on CD 3 Kaime.wav

Pre-gap length 0:00:01.00

Peak level 98.3 % Extraction speed 11.9 X Track quality 99.9 % Test CRC BE4AD876 Copy CRC BE4AD876 Track not present in AccurateRip database Copy OK

Track 4

Filename C:\RIPs\04 - Sora ga Kureta Okurimono (Off Vocal).wav

Pre-gap length 0:00:02.00

Peak level 87.0 % Extraction speed 12.9 X Track quality 100.0 % Test CRC 9DB3A930 Copy CRC 9DB3A930 Track not present in AccurateRip database Copy OK

None of the tracks are present in the AccurateRip database

No errors occurred

End of status report

---- CUETools DB Plugin V2.1.4

[CTDB TOCID: ek7.5kri7eC7ErFYvAaJxqtj8eE-] disk not present in databaseSubmit result: ek7.5kri7eC7ErFYvAaJxqtj8eE- has been uploaded

==== Log checksum C7860BB0E12E2C87D5BF1982DA7C26462E91BEA2A246B4CF82C2F1BCD4D75B1D ====
[/spoiler]
</div>
</div>
</div>
</div>
</div>
[spoiler="2007 - Character CD 4 [SCDC-00585]"]
Character CD 4
Список треков:
01. Nemure Nai Fantaji [4:32]
02. Aiken no Seikatsu [11:41]
03. Ura Zero no Tsukaima. Toku on CD Saishuukai [9:29]
04. Nemure Nai Fantaji (Off Vocal) [4:32]Official DR value: DR11

Проверка:
<div class="post-box">
<div class="sp-wrap">
<div class="sp-head folded">Открыть</div>
<div class="sp-body">
<div class="sp-wrap">
<div class="sp-head folded">ЕАС Лог</div>
<div class="sp-body">

Exact Audio Copy V1.0 beta 3 from 29. August 2011

EAC extraction logfile from 6. December 2012, 23:41

- / Zero no Tsukaima 2 Character CD 4

Used drive : PLEXTOR CD-R PREMIUM2 Adapter: 0 ID: 0

Read mode : SecureUtilize accurate stream : YesDefeat audio cache : YesMake use of C2 pointers : No

Read offset correction : 30Overread into Lead-In and Lead-Out : YesFill up missing offset samples with silence : YesDelete leading and trailing silent blocks : NoNull samples used in CRC calculations : YesUsed interface : Native Win32 interface for Win NT & 2000Gap handling : Appended to previous track

Used output format : User Defined EncoderSelected bitrate : 1024 kBit/sQuality : HighAdd ID3 tag : NoCommand line compressor : C:\Program Files (x86)\Exact Audio Copy\Flac\flac.exeAdditional command line options : -V -8 -T "Genre=%genre%" -T "Artist=%artist%" -T "Title=%title%" -T "Album=%albumtitle%" -T "Date=%year%" -T "Tracknumber=%tracknr%" -T "Comment=%comment%" %source%

TOC of the extracted CD

Track | Start | Length | Start sector | End sector --------------------------------------------------------- 1 | 0:00.00 | 4:31.70 | 0 | 20394 2 | 4:31.70 | 11:41.05 | 20395 | 72974 3 | 16:13.00 | 9:28.72 | 72975 | 115646 4 | 25:41.72 | 4:31.62 | 115647 | 136033

Track 1

Filename C:\RIPs\01 - Nemure Nai Fantaji.wav

Pre-gap length 0:00:02.00

Peak level 94.4 % Extraction speed 8.4 X Track quality 99.9 % Test CRC D7C7190A Copy CRC D7C7190A Track not present in AccurateRip database Copy OK

Track 2

Filename C:\RIPs\02 - Aiken no Seikatsu.wav

Peak level 98.4 % Extraction speed 10.7 X Track quality 100.0 % Test CRC 7F145B44 Copy CRC 7F145B44 Track not present in AccurateRip database Copy OK

Track 3

Filename C:\RIPs\03 - Ura Zero no Tsukaima. Toku on CD Saishuukai.wav

Peak level 93.3 % Extraction speed 12.3 X Track quality 100.0 % Test CRC BD1F2F20 Copy CRC BD1F2F20 Track not present in AccurateRip database Copy OK

Track 4

Filename C:\RIPs\04 - Nemure Nai Fantaji (Off Vocal).wav

Pre-gap length 0:00:02.00

Peak level 93.1 % Extraction speed 12.8 X Track quality 100.0 % Test CRC 4D15C04C Copy CRC 4D15C04C Track not present in AccurateRip database Copy OK

None of the tracks are present in the AccurateRip database

No errors occurred

End of status report

---- CUETools DB Plugin V2.1.4

[CTDB TOCID: x7JhrXLbRvLqTzNfAdTGc7QS4Xo-] disk not present in databaseSubmit result: x7JhrXLbRvLqTzNfAdTGc7QS4Xo- has been uploaded

==== Log checksum B3A289B2129714857CDB5C8137BD48B583246AC6D432EB24A0DFA12AAC3F69A2 ====
[/spoiler]
</div>
</div>
</div>
</div>
</div>
[spoiler="2007 - Kanjiru CD [SCDC-00581]"]
Kanjiru CD
Список треков:
01. Attention [0:17]
02. Opening ~First Kiss~ [1:39]
03. Louise no Asa [3:31]
04. Kirche no Asa [1:56]
05. Tabitha no Asa [1:22]
06. Louise no Hiruyasumi [2:39]
07. Kirche to Tabitha no Hiruyasumi [3:10]
08. Tabitha no Yoru ~ Torisutein Mahou Gakkou no Kaidan [2:52]
09. Kirche no Yoru ~ Torisutein Mahou Gakkou no Kaidan 2 [2:56]
10. Louise no Yoru ~ Torisutein Mahou Gakkou no Kaidan 3 [4:02]
11. Tegome ni Suru de Arimasu [2:28]
12. Kirche no Yuuwaku [3:36]
13. Louise no Kowa Zurai [5:34]
14. Tabitha to Kirche [2:36]
15. Kisu Shitakuseni [1:18]
16. Go Shujin-sama Nyan [2:12]
17. Louise Pasokon Kidou Boisu 1 [0:05]
18. Louise Pasokon Kidou Boisu 2 [0:09]
19. Louise Pasokon Kidou Boisu 3 [0:08]
20. Louise Pasokon Kidou Boisu 4 [0:04]
21. Louise Meru Kanren Boisu 1 [0:04]
22. Louise Meru Kanren Boisu 2 [0:07]
23. Louise Meru Kanren Boisu 3 [0:10]
24. Louise Keikoku Boisu 1 [0:04]
25. Louise Keikoku Boisu 2 [0:06]
26. Louise Keikoku Boisu 3 [0:05]
27. Louise Keikoku Boisu 4 [0:04]
28. Louise Keikoku Boisu 5 [0:05]
29. Louise Keikoku Boisu 6 [0:05]
30. Louise Keikoku Boisu 7 [0:08]
31. Louise Messeji Boisu 1 [0:04]
32. Louise Messeji Boisu 2 [0:04]
33. Louise Messeji Boisu 3 [0:04]
34. Louise Messeji Boisu 4 [0:04]
35. Louise Messeji Boisu 5 [0:04]
36. Louise Messeji Boisu 6 [0:06]
37. Louise Pasokon Shuuryou Boisu 1 [0:04]
38. Louise Pasokon Shuuryou Boisu 2 [0:07]
39. Louise Pasokon Shuuryou Boisu 3 [0:04]
40. Louise Pasokon Shuuryou Boisu 4 [0:06]
41. Louise Pasokon Shuuryou Boisu 5 [0:08]
42. Louise Pasokon Shuuryou Boisu 6 [0:04]
43. Kirche Pasokon Kidou Boisu 1 [0:05]
44. Kirche Pasokon Kidou Boisu 2 [0:07]
45. Kirche Pasokon Kidou Boisu 3 [0:05]
46. Kirche Pasokon Kidou Boisu 4 [0:14]
47. Kirche Meru Kanren Boisu 1 [0:04]
48. Kirche Meru Kanren Boisu 2 [0:04]
49. Kirche Meru Kanren Boisu 3 [0:07]
50. Kirche Meru Kanren Boisu 4 [0:07]
51. Kirche Keikoku Boisu 1 [0:04]
52. Kirche Keikoku Boisu 2 [0:04]
53. Kirche Keikoku Boisu 3 [0:04]
54. Kirche Keikoku Boisu 4 [0:04]
55. Kirche Keikoku Boisu 5 [0:05]
56. Kirche Keikoku Boisu 6 [0:04]
57. Kirche Messeji Boisu 1 [0:04]
58. Kirche Messeji Boisu 2 [0:04]
59. Kirche Messeji Boisu 3 [0:04]
60. Kirche Messeji Boisu 4 [0:05]
61. Kirche Messeji Boisu 5 [0:04]
62. Kirche Messeji Boisu 6 [0:06]
63. Kirche Pasokon Shuuryou Boisu 1 [0:04]
64. Kirche Pasokon Shuuryou Boisu 2 [0:08]
65. Kirche Pasokon Shuuryou Boisu 3 [0:04]
66. Kirche Pasokon Shuuryou Boisu 4 [0:05]
67. Kirche Pasokon Shuuryou Boisu 5 [0:06]
68. Kirche Pasokon Shuuryou Boisu 6 [0:04]
69. Tabitha Pasokon Kidou Boisu 1 [0:04]
70. Tabitha Pasokon Kidou Boisu 2 [0:04]
71. Tabitha Pasokon Kidou Boisu 3 [0:04]
72. Tabitha Pasokon Kidou Boisu 4 [0:10]
73. Tabitha Meru Kanren Boisu 1 [0:04]
74. Tabitha Meru Kanren Boisu 2 [0:04]
75. Tabitha Meru Kanren Boisu 3 [0:06]
76. Tabitha Keikoku Boisu 1 [0:04]
77. Tabitha Keikoku Boisu 2 [0:05]
78. Tabitha Keikoku Boisu 3 [0:05]
79. Tabitha Keikoku Boisu 4 [0:04]
80. Tabitha Keikoku Boisu 5 [0:04]
81. Tabitha Keikoku Boisu 6 [0:04]
82. Tabitha Keikoku Boisu 7 [0:04]
83. Tabitha Messeji Boisu 1 [0:04]
84. Tabitha Messeji Boisu 2 [0:04]
85. Tabitha Messeji Boisu 3 [0:04]
86. Tabitha Messeji Boisu 4 [0:04]
87. Tabitha Messeji Boisu 5 [0:04]
88. Tabitha Messeji Boisu 6 [0:04]
89. Tabitha Pasokon Shuuryou Boisu 1 [0:04]
90. Tabitha Pasokon Shuuryou Boisu 2 [0:04]
91. Tabitha Pasokon Shuuryou Boisu 3 [0:06]
92. Tabitha Pasokon Shuuryou Boisu 4 [0:04]
93. Tabitha Pasokon Shuuryou Boisu 5 [0:09]Official DR value: DR16
Проверка:
<div class="post-box">
<div class="sp-wrap">
<div class="sp-head folded">Открыть</div>
<div class="sp-body">
<div class="sp-wrap">
<div class="sp-head folded">ЕАС Лог</div>
<div class="sp-body">

Exact Audio Copy V1.0 beta 3 from 29. August 2011

EAC extraction logfile from 8. December 2012, 1:04

- / Zero no Tsukaima 2 Kanjiru CD

Used drive : PLEXTOR CD-R PREMIUM2 Adapter: 0 ID: 0

Read mode : SecureUtilize accurate stream : YesDefeat audio cache : YesMake use of C2 pointers : No

Read offset correction : 30Overread into Lead-In and Lead-Out : YesFill up missing offset samples with silence : YesDelete leading and trailing silent blocks : NoNull samples used in CRC calculations : YesUsed interface : Native Win32 interface for Win NT & 2000Gap handling : Appended to previous track

Used output format : User Defined EncoderSelected bitrate : 1024 kBit/sQuality : HighAdd ID3 tag : NoCommand line compressor : C:\Program Files (x86)\Exact Audio Copy\Flac\flac.exeAdditional command line options : -V -8 -T "Genre=%genre%" -T "Artist=%artist%" -T "Title=%title%" -T "Album=%albumtitle%" -T "Date=%year%" -T "Tracknumber=%tracknr%" -T "Comment=%comment%" %source%

TOC of the extracted CD

Track | Start | Length | Start sector | End sector --------------------------------------------------------- 1 | 0:00.00 | 0:16.70 | 0 | 1269 2 | 0:16.70 | 1:38.72 | 1270 | 8691 3 | 1:55.67 | 3:30.65 | 8692 | 24506 4 | 5:26.57 | 1:56.15 | 24507 | 33221 5 | 7:22.72 | 1:22.20 | 33222 | 39391 6 | 8:45.17 | 2:38.60 | 39392 | 51301 7 | 11:24.02 | 3:09.45 | 51302 | 65521 8 | 14:33.47 | 2:52.08 | 65522 | 78429 9 | 17:25.55 | 2:56.05 | 78430 | 91634 10 | 20:21.60 | 4:01.70 | 91635 | 109779 11 | 24:23.55 | 2:27.40 | 109780 | 120844 12 | 26:51.20 | 3:35.57 | 120845 | 137026 13 | 30:27.02 | 5:34.33 | 137027 | 162109 14 | 36:01.35 | 2:35.47 | 162110 | 173781 15 | 38:37.07 | 1:18.00 | 173782 | 179631 16 | 39:55.07 | 2:11.58 | 179632 | 189514 17 | 42:06.65 | 0:04.57 | 189515 | 189871 18 | 42:11.47 | 0:09.20 | 189872 | 190566 19 | 42:20.67 | 0:07.58 | 190567 | 191149 20 | 42:28.50 | 0:04.30 | 191150 | 191479 21 | 42:33.05 | 0:04.35 | 191480 | 191814 22 | 42:37.40 | 0:07.37 | 191815 | 192376 23 | 42:45.02 | 0:09.48 | 192377 | 193099 24 | 42:54.50 | 0:04.15 | 193100 | 193414 25 | 42:58.65 | 0:05.45 | 193415 | 193834 26 | 43:04.35 | 0:04.42 | 193835 | 194176 27 | 43:09.02 | 0:04.13 | 194177 | 194489 28 | 43:13.15 | 0:04.67 | 194490 | 194856 29 | 43:18.07 | 0:05.05 | 194857 | 195236 30 | 43:23.12 | 0:07.70 | 195237 | 195831 31 | 43:31.07 | 0:04.15 | 195832 | 196146 32 | 43:35.22 | 0:04.13 | 196147 | 196459 33 | 43:39.35 | 0:04.22 | 196460 | 196781 34 | 43:43.57 | 0:04.18 | 196782 | 197099 35 | 43:48.00 | 0:04.12 | 197100 | 197411 36 | 43:52.12 | 0:05.43 | 197412 | 197829 37 | 43:57.55 | 0:04.15 | 197830 | 198144 38 | 44:01.70 | 0:07.00 | 198145 | 198669 39 | 44:08.70 | 0:04.20 | 198670 | 198989 40 | 44:13.15 | 0:05.42 | 198990 | 199406 41 | 44:18.57 | 0:08.05 | 199407 | 200011 42 | 44:26.62 | 0:04.15 | 200012 | 200326 43 | 44:31.02 | 0:04.43 | 200327 | 200669 44 | 44:35.45 | 0:06.40 | 200670 | 201159 45 | 44:42.10 | 0:05.15 | 201160 | 201549 46 | 44:47.25 | 0:14.02 | 201550 | 202601 47 | 45:01.27 | 0:04.15 | 202602 | 202916 48 | 45:05.42 | 0:04.13 | 202917 | 203229 49 | 45:09.55 | 0:07.02 | 203230 | 203756 50 | 45:16.57 | 0:07.13 | 203757 | 204294 51 | 45:23.70 | 0:04.12 | 204295 | 204606 52 | 45:28.07 | 0:04.15 | 204607 | 204921 53 | 45:32.22 | 0:04.13 | 204922 | 205234 54 | 45:36.35 | 0:04.12 | 205235 | 205546 55 | 45:40.47 | 0:04.53 | 205547 | 205899 56 | 45:45.25 | 0:04.25 | 205900 | 206224 57 | 45:49.50 | 0:04.15 | 206225 | 206539 58 | 45:53.65 | 0:04.12 | 206540 | 206851 59 | 45:58.02 | 0:04.35 | 206852 | 207186 60 | 46:02.37 | 0:05.10 | 207187 | 207571 61 | 46:07.47 | 0:04.13 | 207572 | 207884 62 | 46:11.60 | 0:06.02 | 207885 | 208336 63 | 46:17.62 | 0:04.15 | 208337 | 208651 64 | 46:22.02 | 0:07.73 | 208652 | 209249 65 | 46:30.00 | 0:04.12 | 209250 | 209561 66 | 46:34.12 | 0:05.25 | 209562 | 209961 67 | 46:39.37 | 0:05.58 | 209962 | 210394 68 | 46:45.20 | 0:04.17 | 210395 | 210711 69 | 46:49.37 | 0:04.10 | 210712 | 211021 70 | 46:53.47 | 0:04.15 | 211022 | 211336 71 | 46:57.62 | 0:04.13 | 211337 | 211649 72 | 47:02.00 | 0:10.22 | 211650 | 212421 73 | 47:12.22 | 0:04.15 | 212422 | 212736 74 | 47:16.37 | 0:04.33 | 212737 | 213069 75 | 47:20.70 | 0:06.00 | 213070 | 213519 76 | 47:26.70 | 0:04.20 | 213520 | 213839 77 | 47:31.15 | 0:04.55 | 213840 | 214194 78 | 47:35.70 | 0:05.20 | 214195 | 214589 79 | 47:41.15 | 0:04.15 | 214590 | 214904 80 | 47:45.30 | 0:04.12 | 214905 | 215216 81 | 47:49.42 | 0:04.15 | 215217 | 215531 82 | 47:53.57 | 0:04.18 | 215532 | 215849 83 | 47:58.00 | 0:04.12 | 215850 | 216161 84 | 48:02.12 | 0:04.13 | 216162 | 216474 85 | 48:06.25 | 0:04.15 | 216475 | 216789 86 | 48:10.40 | 0:04.15 | 216790 | 217104 87 | 48:14.55 | 0:04.12 | 217105 | 217416 88 | 48:18.67 | 0:04.15 | 217417 | 217731 89 | 48:23.07 | 0:04.13 | 217732 | 218044 90 | 48:27.20 | 0:04.12 | 218045 | 218356 91 | 48:31.32 | 0:05.38 | 218357 | 218769 92 | 48:36.70 | 0:04.17 | 218770 | 219086 93 | 48:41.12 | 0:08.55 | 219087 | 219741

Track 1

Filename C:\RIPs\01 - Attention.wav

Pre-gap length 0:00:02.00

Peak level 33.4 % Extraction speed 3.2 X Track quality 99.3 % Test CRC FCCD6B17 Copy CRC FCCD6B17 Accurately ripped (confidence 1) [8650A514] (AR v1) Copy OK

Track 2

Filename C:\RIPs\02 - Opening ~First Kiss~.wav

Peak level 99.9 % Extraction speed 6.9 X Track quality 99.8 % Test CRC 4CCDE280 Copy CRC 4CCDE280 Accurately ripped (confidence 1) [1E566A69] (AR v1) Copy OK

Track 3

Filename C:\RIPs\03 - Louise no Asa.wav

Peak level 99.3 % Extraction speed 9.0 X Track quality 100.0 % Test CRC 9E281468 Copy CRC 9E281468 Accurately ripped (confidence 1) [6755451C] (AR v1) Copy OK

Track 4

Filename C:\RIPs\04 - Kirche no Asa.wav

Peak level 100.0 % Extraction speed 7.9 X Track quality 99.9 % Test CRC 44E37D98 Copy CRC 44E37D98 Accurately ripped (confidence 1) [505BF6CB] (AR v1) Copy OK

Track 5

Filename C:\RIPs\05 - Tabitha no Asa.wav

Peak level 88.3 % Extraction speed 8.7 X Track quality 100.0 % Test CRC 78EE26F0 Copy CRC 78EE26F0 Accurately ripped (confidence 1) [BE6130C2] (AR v1) Copy OK

Track 6

Filename C:\RIPs\06 - Louise no Hiruyasumi.wav

Peak level 95.5 % Extraction speed 9.8 X Track quality 100.0 % Test CRC F87A3FA0 Copy CRC F87A3FA0 Accurately ripped (confidence 1) [A44C97DF] (AR v1) Copy OK

Track 7

Filename C:\RIPs\07 - Kirche to Tabitha no Hiruyasumi.wav

Peak level 96.9 % Extraction speed 10.5 X Track quality 100.0 % Test CRC 1DDE700E Copy CRC 1DDE700E Accurately ripped (confidence 1) [1870B4B6] (AR v1) Copy OK

Track 8

Filename C:\RIPs\08 - Tabitha no Yoru ~ Torisutein Mahou Gakkou no Kaidan.wav

Peak level 94.4 % Extraction speed 10.8 X Track quality 100.0 % Test CRC 4A9D8B9B Copy CRC 4A9D8B9B Accurately ripped (confidence 1) [78B638B3] (AR v1) Copy OK

Track 9

Filename C:\RIPs\09 - Kirche no Yoru ~ Torisutein Mahou Gakkou no Kaidan 2.wav

Peak level 96.9 % Extraction speed 11.2 X Track quality 100.0 % Test CRC 1A17D6DE Copy CRC 1A17D6DE Accurately ripped (confidence 1) [DCD0CE8F] (AR v1) Copy OK

Track 10

Filename C:\RIPs\10 - Louise no Yoru ~ Torisutein Mahou Gakkou no Kaidan 3.wav

Peak level 99.9 % Extraction speed 12.0 X Track quality 100.0 % Test CRC 4B492542 Copy CRC 4B492542 Accurately ripped (confidence 1) [6AEB3AD8] (AR v1) Copy OK

Track 11

Filename C:\RIPs\11 - Tegome ni Suru de Arimasu.wav

Peak level 99.7 % Extraction speed 11.7 X Track quality 100.0 % Test CRC 93766C46 Copy CRC 93766C46 Accurately ripped (confidence 1) [B0799577] (AR v1) Copy OK

Track 12

Filename C:\RIPs\12 - Kirche no Yuuwaku.wav

Peak level 100.0 % Extraction speed 11.5 X Track quality 99.9 % Test CRC D1030C06 Copy CRC D1030C06 Accurately ripped (confidence 1) [F45FC10B] (AR v1) Copy OK

Track 13

Filename C:\RIPs\13 - Louise no Kowa Zurai.wav

Peak level 89.1 % Extraction speed 13.6 X Track quality 100.0 % Test CRC C42B3BA7 Copy CRC C42B3BA7 Accurately ripped (confidence 1) [41A0A211] (AR v1) Copy OK

Track 14

Filename C:\RIPs\14 - Tabitha to Kirche.wav

Peak level 92.6 % Extraction speed 12.8 X Track quality 100.0 % Test CRC 24D39D43 Copy CRC 24D39D43 Accurately ripped (confidence 1) [AF144E10] (AR v1) Copy OK

Track 15

Filename C:\RIPs\15 - Kisu Shitakuseni.wav

Peak level 93.4 % Extraction speed 9.0 X Track quality 99.8 % Test CRC 8A5FCEC7 Copy CRC 8A5FCEC7 Accurately ripped (confidence 1) [2CF9A20B] (AR v1) Copy OK

Track 16

Filename C:\RIPs\16 - Go Shujin-sama Nyan.wav

Peak level 98.3 % Extraction speed 10.8 X Track quality 99.9 % Test CRC 5B039921 Copy CRC 5B039921 Accurately ripped (confidence 1) [0DFCD5FE] (AR v1) Copy OK

Track 17

Filename C:\RIPs\17 - Louise Pasokon Kidou Boisu 1.wav

Peak level 64.5 % Extraction speed 2.3 X Track quality 100.0 % Test CRC E9F7CB17 Copy CRC E9F7CB17 Track not present in AccurateRip database Copy OK

Track 18

Filename C:\RIPs\18 - Louise Pasokon Kidou Boisu 2.wav

Peak level 69.2 % Extraction speed 2.3 X Track quality 98.8 % Test CRC 58DD0B6A Copy CRC 58DD0B6A Accurately ripped (confidence 1) [44D69610] (AR v1) Copy OK

Track 19

Filename C:\RIPs\19 - Louise Pasokon Kidou Boisu 3.wav

Peak level 77.1 % Extraction speed 3.4 X Track quality 100.0 % Test CRC CFA7BFD1 Copy CRC CFA7BFD1 Accurately ripped (confidence 1) [BBA041EC] (AR v1) Copy OK

Track 20

Filename C:\RIPs\20 - Louise Pasokon Kidou Boisu 4.wav

Peak level 58.1 % Extraction speed 2.1 X Track quality 100.0 % Test CRC 4D9E0C7B Copy CRC 4D9E0C7B Track not present in AccurateRip database Copy OK

Track 21

Filename C:\RIPs\21 - Louise Meru Kanren Boisu 1.wav

Peak level 70.7 % Extraction speed 2.1 X Track quality 100.0 % Test CRC 7FCD7D7D Copy CRC 7FCD7D7D Track not present in AccurateRip database Copy OK

Track 22

Filename C:\RIPs\22 - Louise Meru Kanren Boisu 2.wav

Peak level 70.6 % Extraction speed 3.3 X Track quality 100.0 % Test CRC 3F45BFC3 Copy CRC 3F45BFC3 Accurately ripped (confidence 1) [EAE45100] (AR v1) Copy OK

Track 23

Filename C:\RIPs\23 - Louise Meru Kanren Boisu 3.wav

Peak level 69.0 % Extraction speed 2.4 X Track quality 98.8 % Test CRC CB1DB4BB Copy CRC CB1DB4BB Accurately ripped (confidence 1) [33408FB9] (AR v1) Copy OK

Track 24

Filename C:\RIPs\24 - Louise Keikoku Boisu 1.wav

Peak level 78.2 % Extraction speed 2.0 X Track quality 100.0 % Test CRC 6E77F760 Copy CRC 6E77F760 Track not present in AccurateRip database Copy OK

Track 25

Filename C:\RIPs\25 - Louise Keikoku Boisu 2.wav

Peak level 71.6 % Extraction speed 2.6 X Track quality 100.0 % Test CRC 035B7056 Copy CRC 035B7056 Track not present in AccurateRip database Copy OK

Track 26

Filename C:\RIPs\26 - Louise Keikoku Boisu 3.wav

Peak level 64.9 % Extraction speed 2.2 X Track quality 100.0 % Test CRC CAEAC067 Copy CRC CAEAC067 Track not present in AccurateRip database Copy OK

Track 27

Filename C:\RIPs\27 - Louise Keikoku Boisu 4.wav

Peak level 68.2 % Extraction speed 2.0 X Track quality 100.0 % Test CRC 42F69E60 Copy CRC 42F69E60 Track not present in AccurateRip database Copy OK

Track 28

Filename C:\RIPs\28 - Louise Keikoku Boisu 5.wav

Peak level 60.6 % Extraction speed 2.3 X Track quality 100.0 % Test CRC 353E474A Copy CRC 353E474A Track not present in AccurateRip database Copy OK

Track 29

Filename C:\RIPs\29 - Louise Keikoku Boisu 6.wav

Peak level 74.2 % Extraction speed 2.4 X Track quality 100.0 % Test CRC CCF91717 Copy CRC CCF91717 Track not present in AccurateRip database Copy OK

Track 30

Filename C:\RIPs\30 - Louise Keikoku Boisu 7.wav

Peak level 57.5 % Extraction speed 2.0 X Track quality 98.6 % Test CRC 3DB709D8 Copy CRC 3DB709D8 Accurately ripped (confidence 1) [F9A80886] (AR v1) Copy OK

Track 31

Filename C:\RIPs\31 - Louise Messeji Boisu 1.wav

Peak level 50.0 % Extraction speed 2.0 X Track quality 100.0 % Test CRC EAA112ED Copy CRC EAA112ED Track not present in AccurateRip database Copy OK

Track 32

Filename C:\RIPs\32 - Louise Messeji Boisu 2.wav

Peak level 35.6 % Extraction speed 2.0 X Track quality 100.0 % Test CRC EE7AF6C2 Copy CRC EE7AF6C2 Track not present in AccurateRip database Copy OK

Track 33

Filename C:\RIPs\33 - Louise Messeji Boisu 3.wav

Peak level 39.9 % Extraction speed 1.1 X Track quality 97.4 % Test CRC C99EEBF3 Copy CRC C99EEBF3 Track not present in AccurateRip database Copy OK

Track 34

Filename C:\RIPs\34 - Louise Messeji Boisu 4.wav

Peak level 26.0 % Extraction speed 2.0 X Track quality 100.0 % Test CRC CE1E44D7 Copy CRC CE1E44D7 Track not present in AccurateRip database Copy OK

Track 35

Filename C:\RIPs\35 - Louise Messeji Boisu 5.wav

Peak level 56.2 % Extraction speed 2.0 X Track quality 100.0 % Test CRC 2CAEFC42 Copy CRC 2CAEFC42 Track not present in AccurateRip database Copy OK

Track 36

Filename C:\RIPs\36 - Louise Messeji Boisu 6.wav

Peak level 66.7 % Extraction speed 2.6 X Track quality 100.0 % Test CRC 65B4A42D Copy CRC 65B4A42D Track not present in AccurateRip database Copy OK

Track 37

Filename C:\RIPs\37 - Louise Pasokon Shuuryou Boisu 1.wav

Peak level 55.2 % Extraction speed 2.0 X Track quality 100.0 % Test CRC A47E3092 Copy CRC A47E3092 Track not present in AccurateRip database Copy OK

Track 38

Filename C:\RIPs\38 - Louise Pasokon Shuuryou Boisu 2.wav

Peak level 49.1 % Extraction speed 1.8 X Track quality 98.4 % Test CRC BC5066D4 Copy CRC BC5066D4 Accurately ripped (confidence 1) [04464DF4] (AR v1) Copy OK

Track 39

Filename C:\RIPs\39 - Louise Pasokon Shuuryou Boisu 3.wav

Peak level 66.5 % Extraction speed 2.0 X Track quality 100.0 % Test CRC 0B951F91 Copy CRC 0B951F91 Track not present in AccurateRip database Copy OK

Track 40

Filename C:\RIPs\40 - Louise Pasokon Shuuryou Boisu 4.wav

Peak level 65.1 % Extraction speed 2.6 X Track quality 100.0 % Test CRC 42C0B3DC Copy CRC 42C0B3DC Track not present in AccurateRip database Copy OK

Track 41

Filename C:\RIPs\41 - Louise Pasokon Shuuryou Boisu 5.wav

Peak level 78.5 % Extraction speed 3.5 X Track quality 100.0 % Test CRC A8D4F2E9 Copy CRC A8D4F2E9 Accurately ripped (confidence 1) [5018C398] (AR v1) Copy OK

Track 42

Filename C:\RIPs\42 - Louise Pasokon Shuuryou Boisu 6.wav

Peak level 19.5 % Extraction speed 2.0 X Track quality 100.0 % Test CRC 63DB8D8B Copy CRC 63DB8D8B Track not present in AccurateRip database Copy OK

Track 43

Filename C:\RIPs\43 - Kirche Pasokon Kidou Boisu 1.wav

Peak level 40.7 % Extraction speed 2.2 X Track quality 100.0 % Test CRC 988DB487 Copy CRC 988DB487 Track not present in AccurateRip database Copy OK

Track 44

Filename C:\RIPs\44 - Kirche Pasokon Kidou Boisu 2.wav

Peak level 44.0 % Extraction speed 3.0 X Track quality 100.0 % Test CRC 099AB5C1 Copy CRC 099AB5C1 Accurately ripped (confidence 1) [6A55AA75] (AR v1) Copy OK

Track 45

Filename C:\RIPs\45 - Kirche Pasokon Kidou Boisu 3.wav

Peak level 35.9 % Extraction speed 2.5 X Track quality 100.0 % Test CRC A5D8B33D Copy CRC A5D8B33D Track not present in AccurateRip database Copy OK

Track 46

Filename C:\RIPs\46 - Kirche Pasokon Kidou Boisu 4.wav

Peak level 23.0 % Extraction speed 5.1 X Track quality 100.0 % Test CRC 6D2F1999 Copy CRC 6D2F1999 Accurately ripped (confidence 1) [CB6C72C0] (AR v1) Copy OK

Track 47

Filename C:\RIPs\47 - Kirche Meru Kanren Boisu 1.wav

Peak level 40.7 % Extraction speed 2.0 X Track quality 100.0 % Test CRC 7B1131DC Copy CRC 7B1131DC Track not present in AccurateRip database Copy OK

Track 48

Filename C:\RIPs\48 - Kirche Meru Kanren Boisu 2.wav

Peak level 24.6 % Extraction speed 2.0 X Track quality 100.0 % Test CRC DB6465EB Copy CRC DB6465EB Track not present in AccurateRip database Copy OK

Track 49

Filename C:\RIPs\49 - Kirche Meru Kanren Boisu 3.wav

Peak level 38.2 % Extraction speed 3.1 X Track quality 100.0 % Test CRC 15453DEE Copy CRC 15453DEE Accurately ripped (confidence 1) [C1809B69] (AR v1) Copy OK

Track 50

Filename C:\RIPs\50 - Kirche Meru Kanren Boisu 4.wav

Peak level 44.3 % Extraction speed 3.1 X Track quality 100.0 % Test CRC 59F28D0F Copy CRC 59F28D0F Accurately ripped (confidence 1) [641A277C] (AR v1) Copy OK

Track 51

Filename C:\RIPs\51 - Kirche Keikoku Boisu 1.wav

Peak level 60.4 % Extraction speed 2.0 X Track quality 100.0 % Test CRC F829AF9F Copy CRC F829AF9F Track not present in AccurateRip database Copy OK

Track 52

Filename C:\RIPs\52 - Kirche Keikoku Boisu 2.wav

Peak level 59.7 % Extraction speed 2.0 X Track quality 100.0 % Test CRC 974C41F8 Copy CRC 974C41F8 Track not present in AccurateRip database Copy OK

Track 53

Filename C:\RIPs\53 - Kirche Keikoku Boisu 3.wav

Peak level 52.3 % Extraction speed 2.0 X Track quality 100.0 % Test CRC 40F306E7 Copy CRC 40F306E7 Track not present in AccurateRip database Copy OK

Track 54

Filename C:\RIPs\54 - Kirche Keikoku Boisu 4.wav

Peak level 37.3 % Extraction speed 2.0 X Track quality 100.0 % Test CRC 2B1B013C Copy CRC 2B1B013C Track not present in AccurateRip database Copy OK

Track 55

Filename C:\RIPs\55 - Kirche Keikoku Boisu 5.wav

Peak level 62.1 % Extraction speed 2.2 X Track quality 100.0 % Test CRC 8AA95150 Copy CRC 8AA95150 Track not present in AccurateRip database Copy OK

Track 56

Filename C:\RIPs\56 - Kirche Keikoku Boisu 6.wav

Peak level 21.7 % Extraction speed 1.1 X Track quality 97.4 % Test CRC F0CF7670 Copy CRC F0CF7670 Track not present in AccurateRip database Copy OK

Track 57

Filename C:\RIPs\57 - Kirche Messeji Boisu 1.wav

Peak level 22.3 % Extraction speed 2.0 X Track quality 100.0 % Test CRC 431B0309 Copy CRC 431B0309 Track not present in AccurateRip database Copy OK

Track 58

Filename C:\RIPs\58 - Kirche Messeji Boisu 2.wav

Peak level 20.2 % Extraction speed 2.0 X Track quality 100.0 % Test CRC 04BC5D60 Copy CRC 04BC5D60 Track not present in AccurateRip database Copy OK

Track 59

Filename C:\RIPs\59 - Kirche Messeji Boisu 3.wav

Peak level 41.7 % Extraction speed 2.1 X Track quality 100.0 % Test CRC 058EB34C Copy CRC 058EB34C Track not present in AccurateRip database Copy OK

Track 60

Filename C:\RIPs\60 - Kirche Messeji Boisu 4.wav

Peak level 32.1 % Extraction speed 2.4 X Track quality 100.0 % Test CRC FD16092A Copy CRC FD16092A Track not present in AccurateRip database Copy OK

Track 61

Filename C:\RIPs\61 - Kirche Messeji Boisu 5.wav

Peak level 42.6 % Extraction speed 2.0 X Track quality 100.0 % Test CRC 8DDD9BD8 Copy CRC 8DDD9BD8 Track not present in AccurateRip database Copy OK

Track 62

Filename C:\RIPs\62 - Kirche Messeji Boisu 6.wav

Peak level 41.8 % Extraction speed 2.8 X Track quality 100.0 % Test CRC EC684DAD Copy CRC EC684DAD Accurately ripped (confidence 1) [1CDE2D1E] (AR v1) Copy OK

Track 63

Filename C:\RIPs\63 - Kirche Pasokon Shuuryou Boisu 1.wav

Peak level 57.1 % Extraction speed 2.0 X Track quality 100.0 % Test CRC 4EB5DC62 Copy CRC 4EB5DC62 Track not present in AccurateRip database Copy OK

Track 64

Filename C:\RIPs\64 - Kirche Pasokon Shuuryou Boisu 2.wav

Peak level 35.6 % Extraction speed 2.0 X Track quality 98.6 % Test CRC A5201425 Copy CRC A5201425 Accurately ripped (confidence 1) [462D7D0C] (AR v1) Copy OK

Track 65

Filename C:\RIPs\65 - Kirche Pasokon Shuuryou Boisu 3.wav

Peak level 47.7 % Extraction speed 2.0 X Track quality 100.0 % Test CRC 9ECADFD6 Copy CRC 9ECADFD6 Track not present in AccurateRip database Copy OK

Track 66

Filename C:\RIPs\66 - Kirche Pasokon Shuuryou Boisu 4.wav

Peak level 28.5 % Extraction speed 1.4 X Track quality 97.9 % Test CRC DC591D81 Copy CRC DC591D81 Track not present in AccurateRip database Copy OK

Track 67

Filename C:\RIPs\67 - Kirche Pasokon Shuuryou Boisu 5.wav

Peak level 28.3 % Extraction speed 2.7 X Track quality 100.0 % Test CRC EB774ACA Copy CRC EB774ACA Track not present in AccurateRip database Copy OK

Track 68

Filename C:\RIPs\68 - Kirche Pasokon Shuuryou Boisu 6.wav

Peak level 30.5 % Extraction speed 2.0 X Track quality 100.0 % Test CRC 21DD334C Copy CRC 21DD334C Track not present in AccurateRip database Copy OK

Track 69

Filename C:\RIPs\69 - Tabitha Pasokon Kidou Boisu 1.wav

Peak level 18.0 % Extraction speed 2.0 X Track quality 100.0 % Test CRC 36745262 Copy CRC 36745262 Track not present in AccurateRip database Copy OK

Track 70

Filename C:\RIPs\70 - Tabitha Pasokon Kidou Boisu 2.wav

Peak level 21.1 % Extraction speed 2.0 X Track quality 100.0 % Test CRC 2D1C1803 Copy CRC 2D1C1803 Track not present in AccurateRip database Copy OK

Track 71

Filename C:\RIPs\71 - Tabitha Pasokon Kidou Boisu 3.wav

Peak level 14.0 % Extraction speed 2.0 X Track quality 100.0 % Test CRC F28A147E Copy CRC F28A147E Track not present in AccurateRip database Copy OK

Track 72

Filename C:\RIPs\72 - Tabitha Pasokon Kidou Boisu 4.wav

Peak level 31.7 % Extraction speed 2.5 X Track quality 98.9 % Test CRC 00AA0672 Copy CRC 00AA0672 Accurately ripped (confidence 1) [14255FFA] (AR v1) Copy OK

Track 73

Filename C:\RIPs\73 - Tabitha Meru Kanren Boisu 1.wav

Peak level 19.0 % Extraction speed 2.0 X Track quality 100.0 % Test CRC 21CF7D76 Copy CRC 21CF7D76 Track not present in AccurateRip database Copy OK

Track 74

Filename C:\RIPs\74 - Tabitha Meru Kanren Boisu 2.wav

Peak level 19.1 % Extraction speed 2.1 X Track quality 100.0 % Test CRC 046B441C Copy CRC 046B441C Track not present in AccurateRip database Copy OK

Track 75

Filename C:\RIPs\75 - Tabitha Meru Kanren Boisu 3.wav

Peak level 25.0 % Extraction speed 1.5 X Track quality 98.1 % Test CRC 139F4A1B Copy CRC 139F4A1B Track not present in AccurateRip database Copy OK

Track 76

Filename C:\RIPs\76 - Tabitha Keikoku Boisu 1.wav

Peak level 9.6 % Extraction speed 2.1 X Track quality 100.0 % Test CRC 5C6A8C34 Copy CRC 5C6A8C34 Track not present in AccurateRip database Copy OK

Track 77

Filename C:\RIPs\77 - Tabitha Keikoku Boisu 2.wav

Peak level 17.7 % Extraction speed 2.3 X Track quality 100.0 % Test CRC 6FCB7B17 Copy CRC 6FCB7B17 Track not present in AccurateRip database Copy OK

Track 78

Filename C:\RIPs\78 - Tabitha Keikoku Boisu 3.wav

Peak level 15.1 % Extraction speed 2.5 X Track quality 100.0 % Test CRC 292B38C9 Copy CRC 292B38C9 Track not present in AccurateRip database Copy OK

Track 79

Filename C:\RIPs\79 - Tabitha Keikoku Boisu 4.wav

Peak level 14.2 % Extraction speed 2.1 X Track quality 100.0 % Test CRC 0E8B284C Copy CRC 0E8B284C Track not present in AccurateRip database Copy OK

Track 80

Filename C:\RIPs\80 - Tabitha Keikoku Boisu 5.wav

Peak level 26.4 % Extraction speed 2.0 X Track quality 100.0 % Test CRC AD1FDD50 Copy CRC AD1FDD50 Track not present in AccurateRip database Copy OK

Track 81

Filename C:\RIPs\81 - Tabitha Keikoku Boisu 6.wav

Peak level 24.7 % Extraction speed 2.0 X Track quality 100.0 % Test CRC D8B99415 Copy CRC D8B99415 Track not present in AccurateRip database Copy OK

Track 82

Filename C:\RIPs\82 - Tabitha Keikoku Boisu 7.wav

Peak level 14.7 % Extraction speed 2.0 X Track quality 100.0 % Test CRC EE82179D Copy CRC EE82179D Track not present in AccurateRip database Copy OK

Track 83

Filename C:\RIPs\83 - Tabitha Messeji Boisu 1.wav

Peak level 13.2 % Extraction speed 2.0 X Track quality 100.0 % Test CRC 8A351938 Copy CRC 8A351938 Track not present in AccurateRip database Copy OK

Track 84

Filename C:\RIPs\84 - Tabitha Messeji Boisu 2.wav

Peak level 26.7 % Extraction speed 2.0 X Track quality 100.0 % Test CRC 760F6E9A Copy CRC 760F6E9A Track not present in AccurateRip database Copy OK

Track 85

Filename C:\RIPs\85 - Tabitha Messeji Boisu 3.wav

Peak level 25.0 % Extraction speed 2.0 X Track quality 100.0 % Test CRC C1E6C244 Copy CRC C1E6C244 Track not present in AccurateRip database Copy OK

Track 86

Filename C:\RIPs\86 - Tabitha Messeji Boisu 4.wav

Peak level 17.3 % Extraction speed 2.0 X Track quality 100.0 % Test CRC 791A9CE2 Copy CRC 791A9CE2 Track not present in AccurateRip database Copy OK

Track 87

Filename C:\RIPs\87 - Tabitha Messeji Boisu 5.wav

Peak level 21.6 % Extraction speed 2.0 X Track quality 100.0 % Test CRC CAF6A3DC Copy CRC CAF6A3DC Track not present in AccurateRip database Copy OK

Track 88

Filename C:\RIPs\88 - Tabitha Messeji Boisu 6.wav

Peak level 20.2 % Extraction speed 2.0 X Track quality 100.0 % Test CRC 93CA97CE Copy CRC 93CA97CE Track not present in AccurateRip database Copy OK

Track 89

Filename C:\RIPs\89 - Tabitha Pasokon Shuuryou Boisu 1.wav

Peak level 16.8 % Extraction speed 2.0 X Track quality 100.0 % Test CRC 44195963 Copy CRC 44195963 Track not present in AccurateRip database Copy OK

Track 90

Filename C:\RIPs\90 - Tabitha Pasokon Shuuryou Boisu 2.wav

Peak level 18.8 % Extraction speed 2.0 X Track quality 100.0 % Test CRC 07EEB3FD Copy CRC 07EEB3FD Track not present in AccurateRip database Copy OK

Track 91

Filename C:\RIPs\91 - Tabitha Pasokon Shuuryou Boisu 3.wav

Peak level 19.0 % Extraction speed 2.6 X Track quality 100.0 % Test CRC 1D0ADC74 Copy CRC 1D0ADC74 Track not present in AccurateRip database Copy OK

Track 92

Filename C:\RIPs\92 - Tabitha Pasokon Shuuryou Boisu 4.wav

Peak level 10.6 % Extraction speed 2.0 X Track quality 100.0 % Test CRC 65F11B50 Copy CRC 65F11B50 Track not present in AccurateRip database Copy OK

Track 93

Filename C:\RIPs\93 - Tabitha Pasokon Shuuryou Boisu 5.wav

Peak level 23.7 % Extraction speed 3.8 X Track quality 100.0 % Test CRC C12A7D96 Copy CRC C12A7D96 Accurately ripped (confidence 1) [55AAED95] (AR v1) Copy OK

31 трек(и) скопированы точно62 трек(и) не содержатся в базе AccurateRip

Some tracks could not be verified as accurate

No errors occurred

End of status report

---- CUETools DB Plugin V2.1.4

[CTDB TOCID: SbLA7Fj6ukDJs8t1BjycmK6l3rg-] disk not present in databaseSubmit result: SbLA7Fj6ukDJs8t1BjycmK6l3rg- has been uploaded

==== Log checksum D5394AD9B54A2D72AFDB15B2F998C367662821471FA51F65730492E86E066BD1 ====
[/spoiler]
</div>
</div>
</div>
</div>
</div>
[spoiler="2007 - OST 2 [SCDC-00580]"]
OST 2
Список треков:
01. Anxiety [2:03]
02. I Say Yes ~TV Version~ [1:33]
03. Ill-Natured Sister [1:32]
04. Sweet Sister [1:32]
05. Juu Samurai Tai [1:33]
06. Panic [1:27]
07. Fear of Death [1:24]
08. Tragic Memory [2:51]
09. Henrietta [2:09]
10. A Little Sensual? [1:35]
11. Koakuma [1:42]
12. Nervous [1:35]
13. Ideal Dream [1:56]
14. Mighty Magic [2:16]
15. Some Mystery [1:23]
16. Outbreak of War [1:39]
17. Theme of the Enemy [1:24]
18. Tense Situation [1:54]
19. Miwaku no Yousei Tei [1:42]
20. Strong Hatred [1:54]
21. Honoo no Kougeki [2:20]
22. Distress of Decision [2:13]
23. Positive Death [2:10]
24. I Say Yes (Wedding Version) [2:22]
25. Suki? Kirai!? Suki!!! ~TV Version~ [1:33]
26. Anxiety (Piano Version) [2:02]
27. Tragic Memory (Piano Version) [2:50]
28. Ideal Dream (Piano Version) [1:56]
29. Passed Away (Piano Version) [2:06]
30. Setsunai Omoi (Piano Version) [2:07]Official DR value: DR9
Проверка:
<div class="post-box">
<div class="sp-wrap">
<div class="sp-head folded">Открыть</div>
<div class="sp-body">
<div class="sp-wrap">
<div class="sp-head folded">ЕАС Лог</div>
<div class="sp-body">

Exact Audio Copy V1.0 beta 3 from 29. August 2011

EAC extraction logfile from 7. December 2012, 20:57

- / Zero no Tsukaima 2 OST

Used drive : PLEXTOR CD-R PREMIUM2 Adapter: 0 ID: 0

Read mode : SecureUtilize accurate stream : YesDefeat audio cache : YesMake use of C2 pointers : No

Read offset correction : 30Overread into Lead-In and Lead-Out : YesFill up missing offset samples with silence : YesDelete leading and trailing silent blocks : NoNull samples used in CRC calculations : YesUsed interface : Native Win32 interface for Win NT & 2000Gap handling : Appended to previous track

Used output format : User Defined EncoderSelected bitrate : 1024 kBit/sQuality : HighAdd ID3 tag : NoCommand line compressor : C:\Program Files (x86)\Exact Audio Copy\Flac\flac.exeAdditional command line options : -V -8 -T "Genre=%genre%" -T "Artist=%artist%" -T "Title=%title%" -T "Album=%albumtitle%" -T "Date=%year%" -T "Tracknumber=%tracknr%" -T "Comment=%comment%" %source%

TOC of the extracted CD

Track | Start | Length | Start sector | End sector --------------------------------------------------------- 1 | 0:00.00 | 2:02.38 | 0 | 9187 2 | 2:02.38 | 1:32.46 | 9188 | 16133 3 | 3:35.09 | 1:31.59 | 16134 | 23017 4 | 5:06.68 | 1:31.38 | 23018 | 29880 5 | 6:38.31 | 1:32.61 | 29881 | 36841 6 | 8:11.17 | 1:27.07 | 36842 | 43373 7 | 9:38.24 | 1:23.56 | 43374 | 49654 8 | 11:02.05 | 2:51.35 | 49655 | 62514 9 | 13:53.40 | 2:08.72 | 62515 | 72186 10 | 16:02.37 | 1:35.28 | 72187 | 79339 11 | 17:37.65 | 1:41.71 | 79340 | 86985 12 | 19:19.61 | 1:35.24 | 86986 | 94134 13 | 20:55.10 | 1:56.31 | 94135 | 102865 14 | 22:51.41 | 2:16.04 | 102866 | 113069 15 | 25:07.45 | 1:22.39 | 113070 | 119258 16 | 26:30.09 | 1:38.39 | 119259 | 126647 17 | 28:08.48 | 1:24.13 | 126648 | 132960 18 | 29:32.61 | 1:53.55 | 132961 | 141490 19 | 31:26.41 | 1:42.25 | 141491 | 149165 20 | 33:08.66 | 1:54.24 | 149166 | 157739 21 | 35:03.15 | 2:19.45 | 157740 | 168209 22 | 37:22.60 | 2:12.43 | 168210 | 178152 23 | 39:35.28 | 2:09.66 | 178153 | 187893 24 | 41:45.19 | 2:21.53 | 187894 | 198521 25 | 44:06.72 | 1:32.66 | 198522 | 205487 26 | 45:39.63 | 2:02.13 | 205488 | 214650 27 | 47:42.01 | 2:50.29 | 214651 | 227429 28 | 50:32.30 | 1:55.51 | 227430 | 236105 29 | 52:28.06 | 2:06.31 | 236106 | 245586 30 | 54:34.37 | 2:07.26 | 245587 | 255137

Track 1

Filename C:\RIPs\01 - Anxiety.wav

Pre-gap length 0:00:02.00

Peak level 99.8 % Extraction speed 7.3 X Track quality 99.9 % Test CRC F3311B83 Copy CRC F3311B83 Accurately ripped (confidence 1) [126DA1A9] (AR v1) Copy OK

Track 2

Filename C:\RIPs\02 - I Say Yes ~TV Version~.wav

Pre-gap length 0:00:01.45

Peak level 99.2 % Extraction speed 7.0 X Track quality 99.8 % Test CRC DE1A7370 Copy CRC DE1A7370 Accurately ripped (confidence 1) [A2ECAD19] (AR v1) Copy OK

Track 3

Filename C:\RIPs\03 - Ill-Natured Sister.wav

Pre-gap length 0:00:01.45

Peak level 99.8 % Extraction speed 8.3 X Track quality 100.0 % Test CRC 0851FDE5 Copy CRC 0851FDE5 Accurately ripped (confidence 1) [CC025E10] (AR v1) Copy OK

Track 4

Filename C:\RIPs\04 - Sweet Sister.wav

Pre-gap length 0:00:01.45

Peak level 99.8 % Extraction speed 8.5 X Track quality 100.0 % Test CRC 71CA3FE4 Copy CRC 71CA3FE4 Accurately ripped (confidence 1) [A1BE82A9] (AR v1) Copy OK

Track 5

Filename C:\RIPs\05 - Juu Samurai Tai.wav

Pre-gap length 0:00:01.45

Peak level 99.8 % Extraction speed 8.8 X Track quality 100.0 % Test CRC F4F7355A Copy CRC F4F7355A Accurately ripped (confidence 1) [8B7C9D58] (AR v1) Copy OK

Track 6

Filename C:\RIPs\06 - Panic.wav

Pre-gap length 0:00:01.45

Peak level 99.8 % Extraction speed 8.8 X Track quality 100.0 % Test CRC 89D1A1D6 Copy CRC 89D1A1D6 Accurately ripped (confidence 1) [8A5A4626] (AR v1) Copy OK

Track 7

Filename C:\RIPs\07 - Fear of Death.wav

Pre-gap length 0:00:01.45

Peak level 98.8 % Extraction speed 8.9 X Track quality 100.0 % Test CRC 815E6B05 Copy CRC 815E6B05 Accurately ripped (confidence 1) [D88DC201] (AR v1) Copy OK

Track 8

Filename C:\RIPs\08 - Tragic Memory.wav

Pre-gap length 0:00:01.45

Peak level 99.8 % Extraction speed 10.2 X Track quality 100.0 % Test CRC 87061363 Copy CRC 87061363 Accurately ripped (confidence 1) [8FBB07BD] (AR v1) Copy OK

Track 9

Filename C:\RIPs\09 - Henrietta.wav

Pre-gap length 0:00:01.45

Peak level 99.8 % Extraction speed 10.3 X Track quality 100.0 % Test CRC 8223E3ED Copy CRC 8223E3ED Accurately ripped (confidence 1) [CA36FFDC] (AR v1) Copy OK

Track 10

Filename C:\RIPs\10 - A Little Sensual.wav

Pre-gap length 0:00:01.45

Peak level 99.8 % Extraction speed 10.0 X Track quality 100.0 % Test CRC 2ECA94B4 Copy CRC 2ECA94B4 Accurately ripped (confidence 1) [82974CC7] (AR v1) Copy OK

Track 11

Filename C:\RIPs\11 - Koakuma.wav

Pre-gap length 0:00:01.45

Peak level 99.8 % Extraction speed 10.0 X Track quality 100.0 % Test CRC BA004E59 Copy CRC BA004E59 Accurately ripped (confidence 1) [2DA211CC] (AR v1) Copy OK

Track 12

Filename C:\RIPs\12 - Nervous.wav

Pre-gap length 0:00:02.07

Peak level 99.8 % Extraction speed 10.4 X Track quality 100.0 % Test CRC C43B25C6 Copy CRC C43B25C6 Accurately ripped (confidence 1) [B4852E74] (AR v1) Copy OK

Track 13

Filename C:\RIPs\13 - Ideal Dream.wav

Pre-gap length 0:00:01.45

Peak level 99.8 % Extraction speed 10.9 X Track quality 100.0 % Test CRC D2074FA9 Copy CRC D2074FA9 Accurately ripped (confidence 1) [2FF2AF82] (AR v1) Copy OK

Track 14

Filename C:\RIPs\14 - Mighty Magic.wav

Pre-gap length 0:00:01.45

Peak level 99.8 % Extraction speed 11.4 X Track quality 100.0 % Test CRC 2A1E35BF Copy CRC 2A1E35BF Accurately ripped (confidence 1) [64BED6C8] (AR v1) Copy OK

Track 15

Filename C:\RIPs\15 - Some Mystery.wav

Pre-gap length 0:00:02.08

Peak level 99.8 % Extraction speed 10.6 X Track quality 100.0 % Test CRC 8FBF88AE Copy CRC 8FBF88AE Accurately ripped (confidence 1) [43D7C5F9] (AR v1) Copy OK

Track 16

Filename C:\RIPs\16 - Outbreak of War.wav

Pre-gap length 0:00:01.44

Peak level 99.8 % Extraction speed 11.1 X Track quality 100.0 % Test CRC 9EC06DA4 Copy CRC 9EC06DA4 Accurately ripped (confidence 1) [500CDF73] (AR v1) Copy OK

Track 17

Filename C:\RIPs\17 - Theme of the Enemy.wav

Pre-gap length 0:00:01.45

Peak level 99.8 % Extraction speed 10.8 X Track quality 100.0 % Test CRC 5AEBE6D6 Copy CRC 5AEBE6D6 Accurately ripped (confidence 1) [5999ACD7] (AR v1) Copy OK

Track 18

Filename C:\RIPs\18 - Tense Situation.wav

Pre-gap length 0:00:02.07

Peak level 99.8 % Extraction speed 11.6 X Track quality 100.0 % Test CRC F7B8279D Copy CRC F7B8279D Accurately ripped (confidence 1) [D7401428] (AR v1) Copy OK

Track 19

Filename C:\RIPs\19 - Miwaku no Yousei Tei.wav

Pre-gap length 0:00:01.45

Peak level 99.8 % Extraction speed 11.7 X Track quality 100.0 % Test CRC 790D472E Copy CRC 790D472E Accurately ripped (confidence 1) [2E587747] (AR v1) Copy OK

Track 20

Filename C:\RIPs\20 - Strong Hatred.wav

Pre-gap length 0:00:02.08

Peak level 99.2 % Extraction speed 11.9 X Track quality 100.0 % Test CRC 37A7DE44 Copy CRC 37A7DE44 Accurately ripped (confidence 1) [2B2A17A0] (AR v1) Copy OK

Track 21

Filename C:\RIPs\21 - Honoo no Kougeki.wav

Pre-gap length 0:00:01.45

Peak level 99.2 % Extraction speed 12.6 X Track quality 100.0 % Test CRC A149A1FC Copy CRC A149A1FC Accurately ripped (confidence 1) [FE1CCEEC] (AR v1) Copy OK

Track 22

Filename C:\RIPs\22 - Distress of Decision.wav

Pre-gap length 0:00:01.45

Peak level 99.2 % Extraction speed 12.5 X Track quality 100.0 % Test CRC C26283BD Copy CRC C26283BD Accurately ripped (confidence 1) [4527ED2D] (AR v1) Copy OK

Track 23

Filename C:\RIPs\23 - Positive Death.wav

Pre-gap length 0:00:01.45

Peak level 99.2 % Extraction speed 12.4 X Track quality 100.0 % Test CRC 3C5704C2 Copy CRC 3C5704C2 Accurately ripped (confidence 1) [02213159] (AR v1) Copy OK

Track 24

Filename C:\RIPs\24 - I Say Yes (Wedding Version).wav

Pre-gap length 0:00:01.45

Peak level 99.2 % Extraction speed 12.7 X Track quality 100.0 % Test CRC EC272E82 Copy CRC EC272E82 Accurately ripped (confidence 1) [9DF82514] (AR v1) Copy OK

Track 25

Filename C:\RIPs\25 - Suki Kirai! Suki!!! ~TV Version~.wav

Pre-gap length 0:00:01.45

Peak level 99.2 % Extraction speed 11.8 X Track quality 100.0 % Test CRC 1067C02E Copy CRC 1067C02E Accurately ripped (confidence 1) [453A4913] (AR v1) Copy OK

Track 26

Filename C:\RIPs\26 - Anxiety (Piano Version).wav

Pre-gap length 0:00:02.07

Peak level 94.1 % Extraction speed 10.6 X Track quality 99.9 % Test CRC 78F73566 Copy CRC 78F73566 Accurately ripped (confidence 1) [956C4243] (AR v1) Copy OK

Track 27

Filename C:\RIPs\27 - Tragic Memory (Piano Version).wav

Pre-gap length 0:00:01.45

Peak level 99.2 % Extraction speed 13.2 X Track quality 100.0 % Test CRC B48DA42D Copy CRC B48DA42D Accurately ripped (confidence 1) [67EE7C31] (AR v1) Copy OK

Track 28

Filename C:\RIPs\28 - Ideal Dream (Piano Version).wav

Pre-gap length 0:00:01.45

Peak level 89.6 % Extraction speed 12.5 X Track quality 100.0 % Test CRC D54C424F Copy CRC D54C424F Accurately ripped (confidence 1) [13B2C9FA] (AR v1) Copy OK

Track 29

Filename C:\RIPs\29 - Passed Away (Piano Version).wav

Pre-gap length 0:00:01.45

Peak level 99.2 % Extraction speed 12.7 X Track quality 100.0 % Test CRC EF733BDA Copy CRC EF733BDA Accurately ripped (confidence 1) [24953CFA] (AR v1) Copy OK

Track 30

Filename C:\RIPs\30 - Setsunai Omoi (Piano Version).wav

Pre-gap length 0:00:01.45

Peak level 89.6 % Extraction speed 12.7 X Track quality 100.0 % Test CRC 668B1BBC Copy CRC 668B1BBC Accurately ripped (confidence 1) [2D95A242] (AR v1) Copy OK

All tracks accurately ripped

No errors occurred

End of status report

---- CUETools DB Plugin V2.1.4

[CTDB TOCID: IziyqGPs3r5rZG_BzPHagqCqigQ-] disk not present in databaseSubmit result: IziyqGPs3r5rZG_BzPHagqCqigQ- has been uploaded

==== Log checksum DAF0A60BF74CF3211C2A1B559C0612E99E97907904C7127534535ACC1CF5A4F0 ====
[/spoiler]
</div>
</div>
</div>
</div>
</div>
[spoiler="2008 - Character CD 1 [COCX-35138]"]
Character CD 1
Список треков:
01. Dame! ~ Otome Gokoro Enjou [4:10]
02. Zero no Tsukaima ~Princess no Rondo~ 3D Dorama Louise Hen [18:21]
03. Dame! ~ Otome Gokoro Enjou (Re-mix Version) [4:40]
04. Dame! ~ Otome Gokoro Enjou (Off Vocal) [4:09]Official DR value: DR9

Проверка:
<div class="post-box">
<div class="sp-wrap">
<div class="sp-head folded">Открыть</div>
<div class="sp-body">
<div class="sp-wrap">
<div class="sp-head folded">ЕАС Лог</div>
<div class="sp-body">

Exact Audio Copy V1.0 beta 3 from 29. August 2011

EAC extraction logfile from 8. December 2012, 23:23

- / Zero no Tsukaima 3 Character CD 1

Used drive : PLEXTOR CD-R PREMIUM2 Adapter: 0 ID: 0

Read mode : SecureUtilize accurate stream : YesDefeat audio cache : YesMake use of C2 pointers : No

Read offset correction : 30Overread into Lead-In and Lead-Out : YesFill up missing offset samples with silence : YesDelete leading and trailing silent blocks : NoNull samples used in CRC calculations : YesUsed interface : Native Win32 interface for Win NT & 2000Gap handling : Appended to previous track

Used output format : User Defined EncoderSelected bitrate : 1024 kBit/sQuality : HighAdd ID3 tag : NoCommand line compressor : C:\Program Files (x86)\Exact Audio Copy\Flac\flac.exeAdditional command line options : -V -8 -T "Genre=%genre%" -T "Artist=%artist%" -T "Title=%title%" -T "Album=%albumtitle%" -T "Date=%year%" -T "Tracknumber=%tracknr%" -T "Comment=%comment%" %source%

TOC of the extracted CD

Track | Start | Length | Start sector | End sector --------------------------------------------------------- 1 | 0:00.00 | 4:09.45 | 0 | 18719 2 | 4:09.45 | 18:20.74 | 18720 | 101293 3 | 22:30.44 | 4:39.74 | 101294 | 122292 4 | 27:10.43 | 4:08.66 | 122293 | 140958

Track 1

Filename C:\RIPs\01 - Dame! ~ Otome Gokoro Enjou.wav

Pre-gap length 0:00:02.00

Peak level 98.4 % Extraction speed 8.8 X Track quality 100.0 % Test CRC 8BEB762C Copy CRC 8BEB762C Track not present in AccurateRip database Copy OK

Track 2

Filename C:\RIPs\02 - Zero no Tsukaima ~Princess no Rondo~ 3D Dorama Louise Hen.wav

Pre-gap length 0:00:01.37

Peak level 99.0 % Extraction speed 11.3 X Track quality 100.0 % Test CRC 3AFC8ED9 Copy CRC 3AFC8ED9 Track not present in AccurateRip database Copy OK

Track 3

Filename C:\RIPs\03 - Dame! ~ Otome Gokoro Enjou (Re-mix Version).wav

Pre-gap length 0:00:02.39

Peak level 98.4 % Extraction speed 12.5 X Track quality 100.0 % Test CRC 2507BB93 Copy CRC 2507BB93 Track not present in AccurateRip database Copy OK

Track 4

Filename C:\RIPs\04 - Dame! ~ Otome Gokoro Enjou (Off Vocal).wav

Pre-gap length 0:00:02.37

Peak level 98.4 % Extraction speed 12.9 X Track quality 100.0 % Test CRC 64AC9A93 Copy CRC 64AC9A93 Track not present in AccurateRip database Copy OK

None of the tracks are present in the AccurateRip database

No errors occurred

End of status report

---- CUETools DB Plugin V2.1.4

[CTDB TOCID: LV52fA.eMbHyjfWCrfiZJRQbZnw-] disk not present in databaseSubmit result: LV52fA.eMbHyjfWCrfiZJRQbZnw- has been uploaded

==== Log checksum 8BA22BDBCAA1D98A109B005EC713050A16A9026FBAE5508E86F3D9A9E3B73462 ====
[/spoiler]
</div>
</div>
</div>
</div>
</div>
[spoiler="2008 - Character CD 2 [COCX-35139]"]
Character CD 2
Список треков:
01. Fairy Girl ~ Yumemiru Yousei [4:01]
02. Zero no Tsukaima ~Princess no Rondo~ 3D Dorama Tiffania Hen [12:22]
03. Fairy Girl ~ Yumemiru Yousei (Re-mix version) [5:45]
04. Fairy Girl ~ Yumemiru Yousei (Off Vocal) [3:59]Official DR value: DR10

Проверка:
<div class="post-box">
<div class="sp-wrap">
<div class="sp-head folded">Открыть</div>
<div class="sp-body">
<div class="sp-wrap">
<div class="sp-head folded">ЕАС Лог</div>
<div class="sp-body">

Exact Audio Copy V1.0 beta 3 from 29. August 2011

EAC extraction logfile from 9. December 2012, 12:24

- / Zero no Tsukaima 3 Character CD 2

Used drive : PLEXTOR CD-R PREMIUM2 Adapter: 0 ID: 0

Read mode : SecureUtilize accurate stream : YesDefeat audio cache : YesMake use of C2 pointers : No

Read offset correction : 30Overread into Lead-In and Lead-Out : YesFill up missing offset samples with silence : YesDelete leading and trailing silent blocks : NoNull samples used in CRC calculations : YesUsed interface : Native Win32 interface for Win NT & 2000Gap handling : Appended to previous track

Used output format : User Defined EncoderSelected bitrate : 1024 kBit/sQuality : HighAdd ID3 tag : NoCommand line compressor : C:\Program Files (x86)\Exact Audio Copy\Flac\flac.exeAdditional command line options : -V -8 -T "Genre=%genre%" -T "Artist=%artist%" -T "Title=%title%" -T "Album=%albumtitle%" -T "Date=%year%" -T "Tracknumber=%tracknr%" -T "Comment=%comment%" %source%

TOC of the extracted CD

Track | Start | Length | Start sector | End sector --------------------------------------------------------- 1 | 0:00.00 | 4:01.36 | 0 | 18110 2 | 4:01.36 | 12:21.50 | 18111 | 73735 3 | 16:23.11 | 5:45.12 | 73736 | 99622 4 | 22:08.23 | 3:58.49 | 99623 | 117521

Track 1

Filename C:\RIPs\01 - Fairy Girl ~ Yumemiru Yousei.wav

Pre-gap length 0:00:02.00

Peak level 98.4 % Extraction speed 8.8 X Track quality 100.0 % Test CRC 8E751231 Copy CRC 8E751231 Track not present in AccurateRip database Copy OK

Track 2

Filename C:\RIPs\02 - Zero no Tsukaima ~Princess no Rondo~ 3D Dorama Tiffania Hen.wav

Pre-gap length 0:00:02.39

Peak level 98.7 % Extraction speed 10.4 X Track quality 99.9 % Test CRC EAED290D Copy CRC EAED290D Track not present in AccurateRip database Copy OK

Track 3

Filename C:\RIPs\03 - Fairy Girl ~ Yumemiru Yousei (Re-mix version).wav

Pre-gap length 0:00:02.37

Peak level 98.4 % Extraction speed 11.8 X Track quality 100.0 % Test CRC 1D823CF8 Copy CRC 1D823CF8 Track not present in AccurateRip database Copy OK

Track 4

Filename C:\RIPs\04 - Fairy Girl ~ Yumemiru Yousei (Off Vocal).wav

Peak level 98.4 % Extraction speed 12.2 X Track quality 100.0 % Test CRC 66714285 Copy CRC 66714285 Track not present in AccurateRip database Copy OK

None of the tracks are present in the AccurateRip database

No errors occurred

End of status report

---- CUETools DB Plugin V2.1.4

[CTDB TOCID: WSVQT_PPprMH2kUvByhOu2vFT_M-] disk not present in databaseSubmit result: WSVQT_PPprMH2kUvByhOu2vFT_M- has been uploaded

==== Log checksum E49056626EED317A217372867D2B956ED1A7353502F0B376EB85A9FD287AB7C0 ====
[/spoiler]
</div>
</div>
</div>
</div>
</div>
</div>
</div>

Трекер:  [ 31-Дек-2017 23:42 ]

  

Скачать .torrent

Размер .torrent файла 139 KB


Размер: 9.72 GB
Хэш (hash) релиза: fcae667e204fca399f412fb8f465c2c2d7384830

Еще никто не оставлял запись к записи скачать торрент Zero no Tsukaima Подручный Луизы-Нулизы - 2006-2014 г., FLAC+mp3 . Будь первым!

!Обратная связь