Misfit Garage | Billions | OpenLoad

Скачать через торрент Человек-паук: Через вселенные Spider-Man: Into the Spider-Verse Фильм бесплатно в хорошем качестве torrent

Скачивайте на UnionPeer.org фильмы через торрент без регистрации. Новинки кино в хорошем качестве через торрент. На UnionPeer.org можно скачать через торрент фильмы 2014 и 2015 годов. Самые новые фильмы.

Скачать торрент Человек-паук: Через вселенные Spider-Man: Into the Spider-Verse бесплатно через .torrent фильм мультфильм сериал

Статистика раздачи
Размер:  397 MB   |    Зарегистрирован:  6 месяцев   |    .torrent скачан:  44 раза   |   
Раздают:  1  
   
загрузка...
 
Автор Сообщение

Galfimbul

avatar Galfimbul


Человек-паук: Через вселенные / Spider-Man: Into the Spider-Verse

Тип раздаваемого материала: трейлер
Год выпуска фильма: 2018
Страна: США
Жанр: боевик, комедия
Продолжительность: 00:01:15
Перевод: Английский + полное дублирование
Русские субтитры: нетРежиссер: Боб Персикетти, Пётр Ремсей, Родни Ротман
Сценарий: Фил Лорд
Кинокомпания: Marvel Entertainment, Columbia Pictures, Sony Pictures Animation
Автор идеи: Алекс Хирш, Phil Lord and Christopher MillerВ ролях: Шамейк Мур (Майлз Моралес/Человек-паук) , Лив Шрайбер (Морлун), Махершала Али (Хоби Браун/Бродяга), Брайн Тире Генри (Джефферсон Дэвис)Описание: В «классической форме Человека-паука» Майлз Моралес должен манипулировать своей старшей школьной жизнью и своим статусом супергерояДата выхода (США): 13 декабря 2018, Columbia TriStar Motion Picture Group
Премьера (РФ): 27 декабря 2018, «WDSSPR» Качество: HDRip
Формат видео: MKV
Видео кодек: H264
Аудио кодек: PCM/DTS/AC-3
Видео: AVC, 8bit, 4:2:0, [email protected], 1920x802 (2.40:1), 23,976 fps, 34.1 Mbps
Аудио:
1) ENG PCM / 5.1 / 48 kHz / 6912 kb/s / 24 bit
2) ENG DTS / 5.1 / 48 kHz / 1536 kb/s / 24 bit
3) ENG AC-3 / 5.1 / 48 kHz / 640 kb/s
4) ENG AC-3 / 2.0 / 48 kHz / 640 kb/s
5) RUS MP3 / 2.0 / 44.1 kHz / 128 kb/s внешним файлом
General
Unique ID : 177796017247569680898626224197545429927 (0x85C24471C50D5CB7B5BC5404733B0BA7)
Complete name : H:\=ENTERTAINMENT=\=Trailers=\Spider-Man Into the Spider-Verse [Человек-паук Через Вселенные] (2018) 1920x802 [Trailer #1].mkv
Format : Matroska
Format version : Version 4 / Version 2
File size : 396 MiB
Duration : 1mn 15s
Overall bit rate : 43.8 Mbps
Movie name : Animated Spiderman - thedigitaltheater.com
Encoded date : UTC 2017-12-10 17:47:13
Writing application : mkvmerge v12.0.0 ('Trust / Lust') 64bit
Writing library : libebml v1.3.4 + libmatroska v1.4.5 / Lavf55.33.100

Video
ID : 1
Format : AVC
Format/Info : Advanced Video Codec
Format profile : [email protected]
Format settings, CABAC : Yes
Format settings, ReFrames : 4 frames
Codec ID : V_MPEG4/ISO/AVC
Duration : 1mn 15s
Bit rate : 34.1 Mbps
Width : 1 920 pixels
Height : 802 pixels
Display aspect ratio : 2.40:1
Frame rate mode : Constant
Frame rate : 23.976 (24000/1001) fps
Color space : YUV
Chroma subsampling : 4:2:0
Bit depth : 8 bits
Scan type : Progressive
Bits/(Pixel*Frame) : 0.924
Stream size : 308 MiB (78%)
Default : Yes
Forced : No
Color range : Limited
Color primaries : BT.709
Transfer characteristics : BT.709
Matrix coefficients : BT.709

Audio #1
ID : 2
Format : PCM
Codec ID : A_PCM/INT/LIT
Duration : 1mn 15s
Bit rate mode : Constant
Bit rate : 6 912 Kbps
Channel(s) : 6 channels
Sampling rate : 48.0 KHz
Frame rate : 46.888 fps (1024 spf)
Bit depth : 24 bits
Delay relative to video : 8ms
Stream size : 62.4 MiB (16%)
Title : PCM 5.1
Language : English
Default : Yes
Forced : No

Audio #2
ID : 3
Format : DTS
Format/Info : Digital Theater Systems
Mode : 16
Format settings, Endianness : Big
Codec ID : A_DTS
Duration : 1mn 15s
Bit rate mode : Constant
Bit rate : 1 536 Kbps
Channel(s) : 6 channels
Channel positions : Front: L C R, Side: L R, LFE
Sampling rate : 48.0 KHz
Frame rate : 93.750 fps (512 spf)
Bit depth : 24 bits
Compression mode : Lossy
Delay relative to video : 8ms
Stream size : 13.9 MiB (4%)
Title : DTS 5.1
Language : English
Default : No
Forced : No

Audio #3
ID : 4
Format : AC-3
Format/Info : Audio Coding 3
Mode extension : CM (complete main)
Format settings, Endianness : Big
Codec ID : A_AC3
Duration : 1mn 15s
Bit rate mode : Constant
Bit rate : 640 Kbps
Channel(s) : 6 channels
Channel positions : Front: L C R, Side: L R, LFE
Sampling rate : 48.0 KHz
Frame rate : 31.250 fps (1536 spf)
Compression mode : Lossy
Delay relative to video : 29ms
Stream size : 5.78 MiB (1%)
Title : AC3 5.1
Language : English
Default : No
Forced : No

Audio #4
ID : 5
Format : AC-3
Format/Info : Audio Coding 3
Mode extension : CM (complete main)
Format settings, Endianness : Big
Codec ID : A_AC3
Duration : 1mn 15s
Bit rate mode : Constant
Bit rate : 640 Kbps
Channel(s) : 2 channels
Channel positions : Front: L R
Sampling rate : 48.0 KHz
Frame rate : 31.250 fps (1536 spf)
Compression mode : Lossy
Delay relative to video : 29ms
Stream size : 5.78 MiB (1%)
Title : AC3 STEREO
Language : English
Default : No
Forced : No

Audio RUS
Format : MPEG Audio
Format version : Version 1
Format profile : Layer 3
Mode : Joint stereo
Duration : 1mn 14s
Bit rate mode : Constant
Bit rate : 128 Kbps
Channel(s) : 2 channels
Sampling rate : 44.1 KHz
Compression mode : Lossy
Stream size : 1.13 MiB (98%)
<div class="sp-wrap">
<div class="sp-head folded">En.Wiki</div>
<div class="sp-body">http://en.wikipedia.org/wiki/Spider-Man:_Into_the_Spider-Verse
Это Человек-паук Алтимейт Вселенной 1610, появившийся после смерти Питера Паркера. Вскоре после слияний Вселенных 1610 и Оригинальной, Майлз находится на той же Земле, где и все оригинальные герои.
</div>
</div>

Трекер:  [ 25-Дек-2017 06:30 ]

  

Скачать .torrent

Размер .torrent файла 16 KB


Размер: 397 MB
Хэш (hash) релиза: d58b74573bedfbaa4eb1499f0f572e325d9c07a0
Подписка на обновления:

Еще никто не оставлял запись к записи скачать торрент Человек-паук: Через вселенные Spider-Man: Into the Spider-Verse . Будь первым!

!Обратная связь