The Revenant - Der Rueckkehrer 2015 German DVDScr MD XViD - iND | • Penny Dreadful (Türkçe Dublaj) 7.4 | Curvy Supermodel

Скачать через торрент [ANIME] Новая игра! New Game! бесплатно русская версия torrent активатор

Статистика раздачи
Размер:  3.01 GB   |    Зарегистрирован:  6 месяцев   |    .torrent скачан:  30 раз   |   
Раздают:  1  
   
загрузка...
 
Автор Сообщение

Galfimbul

avatar Galfimbul


Новая игра! / New Game!

Год выпуска: 2016

Страна: Япония
Жанр: Сейнен, повседневность, комедия
Продолжительность: ~24 min, 12 ep
Перевод: Субтитры Shift+Timecraft
Субтитры: только русские
Оригинальная аудиодорожка: японский

Режиссер: Фудзивара Ёсиюки / Fujiwara Yoshiyuki
Описание: «Видеоигры — мое все!», — таков девиз выпускницы старшей школы Аобы Сузуказэ. По окончанию школы она отправляется работать художником заднего плана в компанию-разработчика игр. Но мало того, что сама Аоба выглядит отнюдь не как старшеклассница, так еще и попадает в команду чудаков-разработчиков! Сможет ли в такой компании Аоба воплотить свою мечту в реальность: занять роль проектировщика в столь неоднозначном коллективе?
Качество: WEBRip
Формат: MP4
Видео: AVC, 960x540 (16:9), ~1400kbps, 23.810fps
Аудио: японский, AAC, 2 ch, 44.1 kHz, 132 kb/s
General
Complete name               : .\New Game! - 01 (WEBRip 960x540 x264 AAC).mp4
Format                      : MPEG-4
Format profile              : Base Media
Codec ID                    : isom (isom/iso2/avc1/mp41)
File size                   : 256 MiB
Duration                    : 23 min 40 s
Overall bit rate            : 1 515 kb/s
Writing application         : Lavf58.0.102

Video
ID                          : 1
Format                      : AVC
Format/Info                 : Advanced Video Codec
Format profile              : [email protected]
Format settings             : CABAC / 8 Ref Frames
Format settings, CABAC      : Yes
Format settings, RefFrames  : 8 frames
Codec ID                    : avc1
Codec ID/Info               : Advanced Video Coding
Duration                    : 23 min 39 s
Bit rate                    : 1 378 kb/s
Nominal bit rate            : 1 740 kb/s
Width                       : 960 pixels
Height                      : 540 pixels
Display aspect ratio        : 16:9
Frame rate mode             : Constant
Frame rate                  : 23.810 FPS
Color space                 : YUV
Chroma subsampling          : 4:2:0
Bit depth                   : 8 bits
Scan type                   : Progressive
Bits/(Pixel*Frame)          : 0.112
Stream size                 : 233 MiB (91%)
Writing library             : x264 core 152 r2851 ba24899
Encoding settings           : cabac=1 / ref=8 / deblock=1:-1:-1 / analyse=0x3:0x113 / me=umh / subme=7 / psy=1 / psy_rd=0.40:0.00 / mixed_ref=1 / me_range=24 / chroma_me=1 / trellis=1 / 8x8dct=1 / cqm=0 / deadzone=21,11 / fast_pskip=1 / chroma_qp_offset=-2 / threads=3 / lookahead_threads=1 / sliced_threads=0 / nr=0 / decimate=1 / interlaced=0 / bluray_compat=0 / constrained_intra=0 / bframes=12 / b_pyramid=2 / b_adapt=1 / b_bias=0 / direct=1 / weightb=1 / open_gop=0 / weightp=2 / keyint=250 / keyint_min=23 / scenecut=40 / intra_refresh=0 / rc_lookahead=40 / rc=cbr / mbtree=1 / bitrate=1740 / ratetol=1.0 / qcomp=0.60 / qpmin=0 / qpmax=69 / qpstep=4 / vbv_maxrate=1740 / vbv_bufsize=1000 / nal_hrd=none / filler=0 / ip_ratio=1.40 / aq=1:0.60

Audio
ID                          : 2
Format                      : AAC
Format/Info                 : Advanced Audio Codec
Format profile              : LC
Codec ID                    : mp4a-40-2
Duration                    : 23 min 40 s
Bit rate mode               : Constant
Bit rate                    : 132 kb/s
Channel(s)                  : 2 channels
Channel positions           : Front: L R
Sampling rate               : 44.1 kHz
Frame rate                  : 43.066 FPS (1024 SPF)
Compression mode            : Lossy
Stream size                 : 21.9 MiB (9%)
Language                    : Japanese
Default                     : Yes
Alternate group             : 1


Трекер:  [ 22-Дек-2017 01:12 ]

  

Скачать .torrent

Размер .torrent файла 16 KB


Размер: 3.01 GB
Хэш (hash) релиза: 065876097dd23cab4d31c5c350a65aa602d24e92

Еще никто не оставлял запись к записи скачать торрент [ANIME] Новая игра! New Game! . Будь первым!

!Обратная связь