The Lost Viki (2018) | Life of the Party 2018 6 | Miss May I

Скачать через торрент музыку Возрождающие Re:Creators бесплатно без регистрации torrent

Статистика раздачи
Размер:  977 MB   |    Зарегистрирован:  6 месяцев   |    .torrent скачан:  23 раза   |   
Раздают:  1  
   
загрузка...
 
Автор Сообщение

Galfimbul

avatar Galfimbul


Возрождающие / Re:Creators

Жанр: Soundtrack
Композитор: Hiroyuki Sawano
Год выпуска диска: 2017
Страна-производитель диска: Япония
Аудиокодек: FLAC (*.flac)
Тип рипа: tracks+.cue
Битрейт аудио: lossless
Продолжительность: 02:37:20
Источник: jpopsuki
Наличие сканов в содержимом раздачи: нет
[spoiler="[2017.06.14] Re:CREATORS Original Soundtrack"]
Продолжительность: 02:15:14
Треклист:
CD1:
01. God of ink
02. rE:[email protected]
03. Re:3$penS
04. 4GL4yu8RE:E
05. Hey39-udn
06. RE:3343
07. HERE I AM
08. 2109-a8Ru Ken / 2109-a8Ru件
09. AL:Lu
10. Koudo 8b6n / 高度8b6n
11. 8sawOGRE6
12. Layers
13. re:pianohi1tars
14. ∞GodMachine
15. ABYSSwaltz
16. Pf:Creators
17. Oto:9RE:eita-zu / 音:9RE:eita-zu
18. BRAVE THE OCEAN
CD2:
01. E:verydaytor1
02. Pf:CreatorsII
03. E:verydaytor2
04. Pf:CreatorsIII
05. SawElephant4ゅ
06. Pf:CreatorsIV
07. E:verydaytor3
08. Pf:CreatorsV
09. God々-ground2SAY310
10. Pf:CreatorsVI
11. E:verydaytor4
12. ○DA-world2HEN火90
13. God of ink <RE:Instrumental>
14. HERE I AM <RE:Instrumental>
15. Layers <RE:Instrumental>
16. BRAVE THE OCEAN <RE:Instrumental>
<div class="sp-wrap">
<div class="sp-head folded">Содержание индексной карты (.CUE)</div>
<div class="sp-body">
<div class="sp-wrap">
<div class="sp-head folded">CD1</div>
<div class="sp-body">

REM DATE 2017PERFORMER "Hiroyuki Sawano"TITLE "Re:CREATORS Original Soundtrack"FILE "01 God of ink.flac" WAVE TRACK 01 AUDIO INDEX 01 00:00:00FILE "02 [email protected]" WAVE TRACK 02 AUDIO INDEX 01 00:00:00FILE "03 Re-3$penS.flac" WAVE TRACK 03 AUDIO INDEX 01 00:00:00FILE "04 4GL4yu8RE-E.flac" WAVE TRACK 04 AUDIO INDEX 01 00:00:00FILE "05 Hey39-udn.flac" WAVE TRACK 05 AUDIO INDEX 01 00:00:00FILE "06 RE-3343.flac" WAVE TRACK 06 AUDIO INDEX 01 00:00:00FILE "07 HERE I AM.flac" WAVE TRACK 07 AUDIO INDEX 01 00:00:00FILE "08 2109-a8Ru件.flac" WAVE TRACK 08 AUDIO INDEX 01 00:00:00FILE "09 AL-Lu.flac" WAVE TRACK 09 AUDIO INDEX 01 00:00:00FILE "10 高度8b6n.flac" WAVE TRACK 10 AUDIO INDEX 01 00:00:00FILE "11 8sawOGRE6.flac" WAVE TRACK 11 AUDIO INDEX 01 00:00:00FILE "12 Layers.flac" WAVE TRACK 12 AUDIO INDEX 01 00:00:00FILE "13 re-pianohi1tars.flac" WAVE TRACK 13 AUDIO INDEX 01 00:00:00FILE "14 ∞GodMachine.flac" WAVE TRACK 14 AUDIO INDEX 01 00:00:00FILE "15 ABYSSwaltz.flac" WAVE TRACK 15 AUDIO INDEX 01 00:00:00FILE "16 Pf-Creators.flac" WAVE TRACK 16 AUDIO INDEX 01 00:00:00FILE "17 音-9RE-eita-zu.flac" WAVE TRACK 17 AUDIO INDEX 01 00:00:00FILE "18 BRAVE THE OCEAN.flac" WAVE TRACK 18 AUDIO INDEX 01 00:00:00
[/spoiler]
REM DATE 2017PERFORMER "Hiroyuki Sawano"TITLE "Re:CREATORS Original Soundtrack"FILE "01 E-verydaytor1.flac" WAVE TRACK 01 AUDIO INDEX 01 00:00:00FILE "02 Pf-CreatorsII.flac" WAVE TRACK 02 AUDIO INDEX 01 00:00:00FILE "03 E-verydaytor2.flac" WAVE TRACK 03 AUDIO INDEX 01 00:00:00FILE "04 Pf-CreatorsIII.flac" WAVE TRACK 04 AUDIO INDEX 01 00:00:00FILE "05 SawElephant4ゅ.flac" WAVE TRACK 05 AUDIO INDEX 01 00:00:00FILE "06 Pf-CreatorsIV.flac" WAVE TRACK 06 AUDIO INDEX 01 00:00:00FILE "07 E-verydaytor3.flac" WAVE TRACK 07 AUDIO INDEX 01 00:00:00FILE "08 Pf-CreatorsV.flac" WAVE TRACK 08 AUDIO INDEX 01 00:00:00FILE "09 God々-ground2SAY310.flac" WAVE TRACK 09 AUDIO INDEX 01 00:00:00FILE "10 Pf-CreatorsVI.flac" WAVE TRACK 10 AUDIO INDEX 01 00:00:00FILE "11 E-verydaytor4.flac" WAVE TRACK 11 AUDIO INDEX 01 00:00:00FILE "12 ○DA-world2HEN火90.flac" WAVE TRACK 12 AUDIO INDEX 01 00:00:00FILE "13 God of ink _RE-Instrumental_.flac" WAVE TRACK 13 AUDIO INDEX 01 00:00:00FILE "14 HERE I AM _RE-Instrumental_.flac" WAVE TRACK 14 AUDIO INDEX 01 00:00:00FILE "15 Layers _RE-Instrumental_.flac" WAVE TRACK 15 AUDIO INDEX 01 00:00:00FILE "16 BRAVE THE OCEAN _RE-Instrumental_.flac" WAVE TRACK 16 AUDIO INDEX 01 00:00:00
</div>
</div>
<div class="sp-wrap">
<div class="sp-head folded">CD1</div>
<div class="sp-body">

-----------------------

DON'T MODIFY THIS FILE

-----------------------

PERFORMER: auCDtect Task Manager, ver. 1.6.0 RC1 build 1.6.0.1Copyright (c) 2008-2010 y-soft. All rights reservedhttp://y-soft.org

ANALYZER: auCDtect: CD records authenticity detector, version 0.8.2Copyright (c) 2004 Oleg Berngardt. All rights reserved.Copyright (c) 2004 Alexander Djourik. All rights reserved.

FILE: 18 BRAVE THE OCEAN.flac Size: 35848479 Hash: 07D9D87028A37554155FC520D0AAFAA8 Accuracy: -m0 Conclusion: MPEG 91% Signature: F024729AE169028EBD2DC687A4C965A102FD1885FILE: 17 音-9RE-eita-zu.flac Size: 41779713 Hash: D40ACAA26EDC661D06E8AC66754D2031 Accuracy: -m0 Conclusion: CDDA 100% Signature: 11863A93B66164FC2C4BB65F4219F74DF1209139FILE: 16 Pf-Creators.flac Size: 12261560 Hash: BA1C47F43F60A5A8BCB0C19EE7CEBC3B Accuracy: -m0 Conclusion: CDDA 100% Signature: B91703F67D73B85448C0C14461B53C1A58807EA2FILE: 15 ABYSSwaltz.flac Size: 25880769 Hash: C7CAC749FA747431B55B00A4AF974977 Accuracy: -m0 Conclusion: MPEG 95% Signature: 7DA59FE38DA10E1666A0061819973000747B5C66FILE: 14 ∞GodMachine.flac Size: 30412377 Hash: EB8282129B7939FA7888F1D7FF092BEC Accuracy: -m0 Conclusion: CDDA 86% Signature: E13326DF5AA312869FFCCE8B8C73E18788EA02C9FILE: 13 re-pianohi1tars.flac Size: 11305758 Hash: C47273F72E23CE2E33B0BE665A63E432 Accuracy: -m0 Conclusion: CDDA 100% Signature: 789EA2255AA46D5E65EBA33EE8BD1DFC7B8B1D96FILE: 12 Layers.flac Size: 30712409 Hash: 1A08C35EBB20E549FC20478D6202753B Accuracy: -m0 Conclusion: CDDA 100% Signature: 037F94165623CE24268FAB919F0DEA32CF566126FILE: 11 8sawOGRE6.flac Size: 28060575 Hash: 8C49F198CCF64B5260608328B1D8885C Accuracy: -m0 Conclusion: CDDA 100% Signature: 6FD09A3798276FBE8B6487F747FC0FD495A8922CFILE: 10 高度8b6n.flac Size: 30784760 Hash: 9523C2CF000828DE75578258701492AF Accuracy: -m0 Conclusion: CDDA 100% Signature: 8145504A5876B58ADDCBB4416ADBB887274082DFFILE: 09 AL-Lu.flac Size: 28826672 Hash: E9D25DA9447C4CBCB3E21BE503A066CF Accuracy: -m0 Conclusion: CDDA 99% Signature: 2313E6B41372758F238D6DE882B002B71366DB5DFILE: 08 2109-a8Ru件.flac Size: 22766817 Hash: C56DF52D89E2C5AB85B22E2ACB1BEE91 Accuracy: -m0 Conclusion: CDDA 100% Signature: 904AB8971FF72A5C71E501534C18CE5FC03BCC2BFILE: 07 HERE I AM.flac Size: 33829984 Hash: A10F2C8B8EFCDCF645AE3633395328E0 Accuracy: -m0 Conclusion: CDDA 100% Signature: 7770C3E7FA5C7C2B6DD9C1E5285EE79B596FC182FILE: 06 RE-3343.flac Size: 13442215 Hash: 8FB925967E21106670180DED21CEA52A Accuracy: -m0 Conclusion: CDDA 100% Signature: BC3F2373A8E96DF86ADCA61B6AD4CC284A9AA84FFILE: 05 Hey39-udn.flac Size: 31770005 Hash: CB1D067F0DBEC8FAB35A3629B871DA2B Accuracy: -m0 Conclusion: CDDA 100% Signature: BCCDBC2E9B914992E68EA8DC3B44D734692EC42AFILE: 04 4GL4yu8RE-E.flac Size: 26294597 Hash: 79C265304848455BDA38F0CBB3F68157 Accuracy: -m0 Conclusion: CDDA 100% Signature: 4A98A1A180D69A621E497530AA1A9FFA310BB45CFILE: 03 Re-3$penS.flac Size: 27207527 Hash: E16FF12A86A9A64F2BD3684CB80E22CC Accuracy: -m0 Conclusion: CDDA 100% Signature: AA6DFF5050EF6CA4D7773F9F5F2A3CE24124B6C2FILE: 02 [email protected] Size: 33415032 Hash: D0DFD81350A9B8A6671D9D95097F3C13 Accuracy: -m0 Conclusion: CDDA 100% Signature: 997E18E01EB0970330C2FD66CE1D48C6AD7D531FFILE: 01 God of ink.flac Size: 32954058 Hash: 964807F00BA682F53CAD4234F760568B Accuracy: -m0 Conclusion: CDDA 100% Signature: 2B2A0F9EA527C6AB3AB4858F968F1531025A4CED
-----------------------

DON'T MODIFY THIS FILE

-----------------------

PERFORMER: auCDtect Task Manager, ver. 1.6.0 RC1 build 1.6.0.1Copyright (c) 2008-2010 y-soft. All rights reservedhttp://y-soft.org

ANALYZER: auCDtect: CD records authenticity detector, version 0.8.2Copyright (c) 2004 Oleg Berngardt. All rights reserved.Copyright (c) 2004 Alexander Djourik. All rights reserved.

FILE: 16 BRAVE THE OCEAN _RE-Instrumental_.flac Size: 35234398 Hash: 4CE2E7527F4D42C32BDB401899519D55 Accuracy: -m0 Conclusion: CDDA 100% Signature: BC310996454C7C8843DC508071C843DE378F8176FILE: 15 Layers _RE-Instrumental_.flac Size: 29725504 Hash: 3EA45D628B8D0B49A70151EE5F73AFB4 Accuracy: -m0 Conclusion: CDDA 99% Signature: 2608C6E377E922FA57A7BDE9D8819C97137ADB71FILE: 14 HERE I AM _RE-Instrumental_.flac Size: 33275297 Hash: 44C1D05BA28DAF5C7A2312FF23DCB72B Accuracy: -m0 Conclusion: CDDA 99% Signature: 8BDDBD68B62A35ED070D3977819C9B301FE69500FILE: 13 God of ink _RE-Instrumental_.flac Size: 32359413 Hash: 35231155AAD9AD9D1989272E76E62E80 Accuracy: -m0 Conclusion: CDDA 100% Signature: 80BD694C04C148C3255BAFD1E4B3CA9328A4BFCBFILE: 12 ○DA-world2HEN火90.flac Size: 5063712 Hash: ED345138728EE063EF8A46E778DCBF97 Accuracy: -m0 Conclusion: CDDA 100% Signature: 14A2D9FF6295F9D7D24E29F91D9AF0BD7AEF96CDFILE: 11 E-verydaytor4.flac Size: 34006418 Hash: 4A8F90BBAC22677AA2DE08B685C47F7F Accuracy: -m0 Conclusion: CDDA 100% Signature: 784FEFEB1A80F3AAD06C6F5D08DF640D5C775CB0FILE: 10 Pf-CreatorsVI.flac Size: 7982467 Hash: 99FA79686AB2F455C46EF71E97C2B1C9 Accuracy: -m0 Conclusion: CDDA 100% Signature: ACB2EB5970503F05CE07F5648D4DEFAD857D3546FILE: 09 God々-ground2SAY310.flac Size: 28905911 Hash: 2EC203321378635D056CDE22FF48ED0C Accuracy: -m0 Conclusion: CDDA 100% Signature: 2FDAF1EF6C7F43BB0D09AA0C6CEE0C27E72C9DA6FILE: 08 Pf-CreatorsV.flac Size: 6249170 Hash: 7BF4C95BA6CAD0F29343554DEAEA6578 Accuracy: -m0 Conclusion: CDDA 100% Signature: 13F9F41864064F02BF3D3141BC0440B6CF96B0FDFILE: 07 E-verydaytor3.flac Size: 32394943 Hash: C1B45B91053E470521BF0770740259CA Accuracy: -m0 Conclusion: CDDA 100% Signature: 8DE9CC1027A93A016BBC3178F044CD78B8EF045FFILE: 06 Pf-CreatorsIV.flac Size: 8277422 Hash: 16547396472B9D7C8EA93B078DD1FBFC Accuracy: -m0 Conclusion: CDDA 100% Signature: 56667A3FCD69F564AF4EACDA5F3313FC06D6718FFILE: 05 SawElephant4ゅ.flac Size: 26898861 Hash: 80BA365FA80C26602BF07D8227C6FA6A Accuracy: -m0 Conclusion: CDDA 100% Signature: 278FDA25CB28316EDC50E943D41AA54E060AD1BDFILE: 04 Pf-CreatorsIII.flac Size: 5535035 Hash: 0EFA4E027BBCDC9F25786A23069051F2 Accuracy: -m0 Conclusion: CDDA 100% Signature: 10081EAF8C943AA0E71360FD9696F2E654A146AFFILE: 03 E-verydaytor2.flac Size: 24568925 Hash: 1AD679442126B5DB19BC4EAD7ADAA483 Accuracy: -m0 Conclusion: CDDA 100% Signature: 4C23721669BB073F9B7056821E5437B0A47F37A3FILE: 02 Pf-CreatorsII.flac Size: 6675431 Hash: B7EF6A7667788718E8DBA03043CC5142 Accuracy: -m0 Conclusion: CDDA 100% Signature: 56CB8D573C2EA8B12AB584B7DFCB50830C0634C9FILE: 01 E-verydaytor1.flac Size: 37206812 Hash: B916FF1144FDE42B332C2C27D05881EA Accuracy: -m0 Conclusion: CDDA 100% Signature: EE70080CBDD09587E9588C8A1A5E126C4D06E786
</div>
</div>
</div>
</div>
[spoiler="[2017.06.28] OP 1 & 2 Single - gravityWall / sh0ut"]
Продолжительность: 00:25:05
Треклист:
01. gravityWall
02. sh0ut
03. oldToday
04. gravityWall (TV size)
05. gravityWall (instrumental)
06. sh0ut (instrumental)
<div class="sp-wrap">
<div class="sp-head folded">Содержание индексной карты (.CUE)</div>
<div class="sp-body">

REM DATE 2017PERFORMER "Hiroyuki Sawano"TITLE "gravityWall / sh0ut"FILE "01 gravityWall.flac" WAVE TRACK 01 AUDIO INDEX 01 00:00:00FILE "02 sh0ut.flac" WAVE TRACK 02 AUDIO INDEX 01 00:00:00FILE "03 oldToday.flac" WAVE TRACK 03 AUDIO INDEX 01 00:00:00FILE "04 gravityWall (TV size).flac" WAVE TRACK 04 AUDIO INDEX 01 00:00:00FILE "05 gravityWall (instrumental).flac" WAVE TRACK 05 AUDIO INDEX 01 00:00:00FILE "06 sh0ut (instrumental).flac" WAVE TRACK 06 AUDIO INDEX 01 00:00:00
[/spoiler]
-----------------------

DON'T MODIFY THIS FILE

-----------------------

PERFORMER: auCDtect Task Manager, ver. 1.6.0 RC1 build 1.6.0.1Copyright (c) 2008-2010 y-soft. All rights reservedhttp://y-soft.org

ANALYZER: auCDtect: CD records authenticity detector, version 0.8.2Copyright (c) 2004 Oleg Berngardt. All rights reserved.Copyright (c) 2004 Alexander Djourik. All rights reserved.

FILE: 06 sh0ut (instrumental).flac Size: 32734801 Hash: 05A626FD125D952C5CC70309CB607C82 Accuracy: -m0 Conclusion: CDDA 100% Signature: 1A8A60E20D07ADB1A42F26CA67C6811B25A83E47FILE: 05 gravityWall (instrumental).flac Size: 29378835 Hash: A14BDF527BF57577AAED4B9A47723B9D Accuracy: -m0 Conclusion: CDDA 100% Signature: AC46325051A20E641369A4ED6FB02B9EF513C6FFFILE: 04 gravityWall (TV size).flac Size: 12021621 Hash: 933F7DDBC6B9CE3B0F843C88CE9CF4CF Accuracy: -m0 Conclusion: CDDA 100% Signature: 29CE0D02B7C8312E3D46866942298D4FEC1AB876FILE: 03 oldToday.flac Size: 31138944 Hash: 874306F97B30100E800F5E7C64F5227A Accuracy: -m0 Conclusion: CDDA 100% Signature: 991EC6F9F96F025E7D6C3B9C15D2BF1F65B2D7B4FILE: 02 sh0ut.flac Size: 33551512 Hash: 8B152B3D1BA7F6534D0E20C57558CA97 Accuracy: -m0 Conclusion: CDDA 100% Signature: 2DF152F67F0F822BC30478B1CBBA1189DB156185FILE: 01 gravityWall.flac Size: 30366772 Hash: E320B376760DA0A0FC802C06ECBE2A9A Accuracy: -m0 Conclusion: CDDA 99% Signature: 285D8AE22C2D85D38EFC7F1BDB98772BF109F2B2
</div>
</div>

Трекер:  [ 21-Дек-2017 20:12 ]

  

Скачать .torrent

Размер .torrent файла 43 KB


Размер: 977 MB
Хэш (hash) релиза: 3260964d534d892d6a217325f1194fab90fecfb8

Торренты, похожие на Возрождающие Re:Creators скачать торрент

Форум Название Автор Размер S L Добавлен
Саундтреки к аниме (mp3) ·· (OST) Возрождающие / Re:Creators - 2017, MP3 (tracks), 320 kbps [1CD] Galfimbul 4265519741 MB 0 0 1494952651

19:37

16-Май-17

Еще никто не оставлял запись к записи скачать торрент Возрождающие Re:Creators . Будь первым!

!Обратная связь