Ritter Rost | Kimmy Meets an Old Friend! | BD 11 Eyes + OVA Subtitle Indonesia

Скачать через торрент музыку Boruto: Naruto Next Generations бесплатно без регистрации torrent

Статистика раздачи
Размер:  300 MB   |    Зарегистрирован:  7 месяцев   |    .torrent скачан:  20 раз   |   
Раздают:  1  
   
загрузка...
 
Автор Сообщение

Galfimbul

avatar Galfimbul


Boruto: Naruto Next Generations

Название альбома: Scenarioart - Sayonara Moon Town (ED2)
Жанр: Soundtrack
Композитор: Scenarioart
Год выпуска диска: 2017
Год выпуска фильма: 2016
Страна-производитель диска: Япония
Аудиокодек: FLAC (*.flac)
Тип рипа: tracks
Битрейт аудио: lossless
Продолжительность: 00:15:22
Источник: скачано с
сайт-источник: http://nyaa.immunicity.st/view/963900
Наличие сканов в содержимом раздачи: да
Треклист:
1. Sayonara Moon Town
2. Hello Goodbye
3. Sayonara Moon Town (instrumental) (Kumiko to Utao Ver.)
4. Sayonara Moon Town (instrumental) (Kousuke to Utaou Ver.)
Exact Audio Copy V1.3 from 2. September 2016

EAC extraction logfile from 22. September 2017, 23:43

Unknown Artist / Unknown Title

Used drive : HL-DT-STDVDRAM GU90N Adapter: 1 ID: 0

Read mode : SecureUtilize accurate stream : YesDefeat audio cache : NoMake use of C2 pointers : No

Combined read/write offset correction : 0Overread into Lead-In and Lead-Out : NoFill up missing offset samples with silence : YesDelete leading and trailing silent blocks : NoNull samples used in CRC calculations : YesUsed interface : Native Win32 interface for Win NT & 2000Gap handling : Appended to previous track

Used output format : User Defined EncoderSelected bitrate : 1024 kBit/sQuality : HighAdd ID3 tag : YesCommand line compressor : C:\Program Files (x86)\Exact Audio Copy\Flac\flac.exe

TOC of the extracted CD

Track | Start | Length | Start sector | End sector --------------------------------------------------------- 1 | 0:00.00 | 3:50.19 | 0 | 17268 2 | 3:50.19 | 3:48.71 | 17269 | 34439 3 | 7:39.15 | 3:51.17 | 34440 | 51781 4 | 11:30.32 | 3:51.48 | 51782 | 69154

Track 1

Filename C:\flac\Scenarioart - Sayonara Moon Town\01 Track01.wav

Pre-gap length 0:00:02.00

Peak level 100.0 % Extraction speed 2.2 X Track quality 100.0 % Test CRC 1723C812 Copy CRC 1723C812 Copy OK

Track 2

Filename C:\flac\Scenarioart - Sayonara Moon Town\02 Track02.wav

Peak level 100.0 % Extraction speed 2.4 X Track quality 100.0 % Test CRC 970F473F Copy CRC 970F473F Copy OK

Track 3

Filename C:\flac\Scenarioart - Sayonara Moon Town\03 Track03.wav

Peak level 100.0 % Extraction speed 2.7 X Track quality 100.0 % Test CRC 7EA33492 Copy CRC 7EA33492 Copy OK

Track 4

Filename C:\flac\Scenarioart - Sayonara Moon Town\04 Track04.wav

Peak level 100.0 % Extraction speed 2.8 X Track quality 100.0 % Test CRC BEC9D8AD Copy CRC BEC9D8AD Copy OK

No errors occurred

End of status report

---- CUETools DB Plugin V2.1.6

[CTDB TOCID: v.XyUqo3A5tDPe1.8HrWQf7D8YA-] foundSubmit result: v.XyUqo3A5tDPe1.8HrWQf7D8YA- has been confirmedTrack | CTDB Status 1 | (13/13) Accurately ripped 2 | (13/13) Accurately ripped 3 | (13/13) Accurately ripped 4 | (13/13) Accurately ripped

==== Log checksum 3D0AFC8EEF0FD222EF2F0B1A4F1DE47E604CB9978C1B5B61644578F0D2626523 ====
Lossless Audio Checker 2.0.6 logfile from Sunday 17 December 2017 05:52:17 PM

File: D:\Скачка\Раздача\Scenarioart - Sayonara Moon Town [FLAC]\01 Sayonara Moon Town.flacResult: Clean

File: D:\Скачка\Раздача\Scenarioart - Sayonara Moon Town [FLAC]\02 Hello Goodbye.flacResult: Clean

File: D:\Скачка\Раздача\Scenarioart - Sayonara Moon Town [FLAC]\03 Sayonara Moon Town (instrumental) (Kumiko to Utao Ver.).flacResult: Clean

File: D:\Скачка\Раздача\Scenarioart - Sayonara Moon Town [FLAC]\04 Sayonara Moon Town (instrumental) (Kousuke to Utaou Ver.).flacResult: Clean


Трекер:  [ 17-Дек-2017 18:12 ]

  

Скачать .torrent

Размер .torrent файла 13 KB


Размер: 300 MB
Хэш (hash) релиза: 58dbc676d2997e472acf99ec7c8988f8790487f4

Еще никто не оставлял запись к записи скачать торрент Boruto: Naruto Next Generations . Будь первым!

!Обратная связь