The Handmaids Tale HDTV 720p AC3 5.1 | Report abuse | Animal Kingdom S01E03 Stay Close, Stick Together.srt

Скачать через торрент Конверт Фильм бесплатно в хорошем качестве torrent

Скачивайте на UnionPeer.org фильмы через торрент без регистрации. Новинки кино в хорошем качестве через торрент. На UnionPeer.org можно скачать через торрент фильмы 2014 и 2015 годов. Самые новые фильмы.

Скачать торрент Конверт бесплатно через .torrent фильм мультфильм сериал

Статистика раздачи
Размер:  2.56 GB   |    Зарегистрирован:  7 месяцев   |    .torrent скачан:  520 раз   |   
Раздают:  1  
   
загрузка...
 
Автор Сообщение

Galfimbul

avatar Galfimbul


Конверт



[b]Год выхода:
2017
Жанр: Триллер, ужасы
Режиссер: Владимир Марков
В ролях: Юлия Пересильд, Игорь Лизенгевич, Ольга Медынич, Сергей Барковский, Дмитрий Куличков, Алексей Кирсанов, Диана Енакаева, Варвара Бородина, Станислав Лесной, Вилен Бабичев

О фильме:
Москва. Наши дни. В архитектурную компанию по ошибке приходит странное письмо. Секретарь, заметив недоразумение, просит водителя Игоря доставить конверт по нужному адресу. С этого момента в его жизни начинают происходить необъяснимые вещи: злосчастный конверт как будто преследует героя, целенаправленно ведя его к таинственному адресату.

</a>

Страна: Россия
Студия: RB Productions
Продолжительность: 01:14:04
Перевод: Русский язык ~ iTunes

Файл
Кодек: MPEG-4 AVC
Качество: WEB-DL 1080p
Видео: 1920x804, 4565kb/s,25.000fps
Звук: 384kb/s, 6ch, 48000kHz, AC3 [RUS]
Субтитры: Отсутствуют
Формат : Matroska
Версия формата : Version 2
Размер файла : 2,56 Гбайт
Продолжительность : 1 ч. 14 м.
Общий поток : 4951 Кбит/сек
Дата кодирования : UTC 2017-12-13 19:14:36
Программа кодирования : mkvmerge v8.3.0 ('Over the Horizon') 64bit
Библиотека кодирования : libebml v1.3.1 + libmatroska v1.4.2

Видео
Идентификатор : 1
Формат : AVC
Формат/Информация : Advanced Video Codec
Профиль формата : [email protected]
Настройки формата : CABAC / 5 Ref Frames
Параметр CABAC формата : Да
Параметр RefFrames формата : 5 кадров
Идентификатор кодека : V_MPEG4/ISO/AVC
Продолжительность : 1 ч. 14 м.
Битрейт : 4565 Кбит/сек
Ширина : 1920 пикселей
Высота : 804 пикселя
Соотношение сторон : 2,40:1
Режим частоты кадров : Постоянный
Частота кадров : 25,000 кадров/сек
Цветовое пространство : YUV
Субдискретизация насыщенности : 4:2:0
Битовая глубина : 8 бит
Тип развёртки : Прогрессивная
Бит/(Пиксели*Кадры) : 0.118
Размер потока : 2,36 Гбайт (92%)
Язык : English
Default : Да
Forced : Нет
Цветовой диапазон : Limited
Основные цвета : BT.709
Характеристики трансфера : BT.709
Коэффициенты матрицы : BT.709

Аудио
Идентификатор : 2
Формат : AC-3
Формат/Информация : Audio Coding 3
Параметр Endianness формата : Big
Идентификатор кодека : A_AC3
Продолжительность : 1 ч. 14 м.
Вид битрейта : Постоянный
Битрейт : 384 Кбит/сек
Каналы : 6 каналов
Расположение каналов : Front: L C R, Side: L R, LFE
Частота : 48,0 КГц
Частота кадров : 31,250 кадров/сек (1536 SPF)
Битовая глубина : 16 бит
Метод сжатия : С потерями
Размер потока : 203 Мбайт (8%)
Язык : Russian
Default : Да
Forced : Нет

Меню
00:00:00.000 : en:Глава 1
00:06:44.520 : en:Глава 2
00:13:00.800 : en:Глава 3
00:19:07.960 : en:Глава 4
00:25:44.680 : en:Глава 5
00:30:35.720 : en:Глава 6
00:36:46.240 : en:Глава 7
00:41:02.280 : en:Глава 8
00:47:11.920 : en:Глава 9
00:54:14.200 : en:Глава 10
00:59:45.040 : en:Глава 11
Источник http://arutor.org

Трекер:  [ 14-Дек-2017 02:40 ]

  

Скачать .torrent

Размер .torrent файла 13 KB


Размер: 2.56 GB
Хэш (hash) релиза: 1bb803b36d0f029111637b97e037520bf3533218
Подписка на обновления:

Торренты, похожие на Конверт скачать торрент

Форум Название Автор Размер S L Добавлен
Российские фильмы до 2016 ·· Конверт (Владимир Марков) [2017, Россия, триллер, ужасы, WEB-DL 1080p] Original Rus Galfimbul 27505026042.56 GB 0 0 1515578951

13:09

10-Янв-18

Российские фильмы до 2016 ·· Конверт (Владимир Марков) [2017, Триллер, ужасы, WEB-DLRip] Galfimbul 778375168742 MB 0 0 1513274524

21:02

14-Дек-17

Российские фильмы до 2016 ·· Конверт (Владимир Марков) [2017, триллер, ужасы, WEB-DLRip-AVC] Galfimbul 15635721061.46 GB 2 0 1513272494

20:28

14-Дек-17

Российские фильмы 2016-2018 (Новинки русского кино) ·· Конверт (Владимир Марков) [2017 г., триллер, ужасы, WEB-DLRip] iTunes Galfimbul 781101882745 MB 2 0 1513248612

13:50

14-Дек-17

Российские фильмы 2016-2018 (Новинки русского кино) ·· Конверт (Владимир Марков) [2017 г., триллер, ужасы, WEB-DLRip] iTunes Galfimbul 14466007041.35 GB 0 0 1513201843

00:50

14-Дек-17

Российские фильмы 2016-2018 (Новинки русского кино) ·· Конверт (Владимир Марков) [2017 г., триллер, ужасы, TS 720p] Galfimbul 18234521211.7 GB 0 0 1512294011

12:40

3-Дек-17

Российские фильмы 2016-2018 (Новинки русского кино) ·· Конверт (Владимир Марков) [2017 г., триллер, ужасы, TS] Galfimbul 14677626881.37 GB 0 0 1512294009

12:40

3-Дек-17

Еще никто не оставлял запись к записи скачать торрент Конверт . Будь первым!

!Обратная связь