Сексология. Взаимоотношения полов | Elementary – Saison 5 | Télécharger Part 2

Скачать через торрент [SERIAL] Отель Элеон Сезон: 3 бесплатно русская версия torrent активатор

Статистика раздачи
Размер:  817 MB   |    Зарегистрирован:  7 месяцев   |    .torrent скачан:  39 раз   |   
Раздают:  1  
   
загрузка...
 
Автор Сообщение

Galfimbul

avatar Galfimbul


Отель Элеон

Год выпуска: 2017

Страна: Россия, Украина
Жанр: Комедия
Продолжительность: ~00:24:40
Перевод: Не требуется
Субтитры: нет

Режиссер: Максим Свешников
В ролях: Диана Пожарская, Александра Кузенкина, Егор Корешков, Екатерина Вилкова, Григорий Сиятвинда, Милош Бикович, Ольга Кузьмина, Виктор Хориняк, Сергей Лавыгин, Михаил Тарабукин, Елена Ксенофонтова, Анна Бегунова, Наталья Щукина, Владислав Ветров, Эльберд Агаев, Владимир Стержаков, Тимур Еремеев, Рина Гришина, Константин Федоров (II), Данила Рассомахин, Павел Рассомахин, Александр Наумов, Артем Сучков, Алексей Марков, Татьяна Шитова, Павел Басов, Василий Мичков, Никита Лобанов,Витас Эйзенах, Сергей Подольный, Роман Курцын, Гурам Баблишвили, Татьяна Жукова-Киртбая, Сергей Макаров (IV), Иван Агапов, Александр Хованский (II), Игорь Скурихин.
Описание: Шеф-повар Виктор Баринов ушел на пенсию, а Элеонора Андреевна встретила мужчину своей мечты. Но жизнь продолжается: Михаил Джекович по-прежнему отвечает за порядок в «Элеоне», шеф-поваром ресторана Victor назначили Сеню, а Настя получает неожиданное повышение, что совсем не радует Костю. Все идет своим чередом, пока отель не возглавляет Павел — непутевый племянник прежней хозяйки. Чтобы выполнить нешуточное условие тети, он переманивает из Брюсселя суперменеджера Софию Толстую. Новая управляющая устанавливает свои правила, и теперь отель ждут серьезные перемены, которые переворачивают с ног на голову не только привычный уклад «Элеона», но и личные планы героев.

Источник рипа WEB-DL.

Качество: WEB-DLRip
Формат: MP4
Видео: H.264, 640 x 360, 16/9, 672 Кб/с, 25 кад/с
Аудио: AAC, 2 Канала, 44.1 KHz, 96 Кб/с
ОбщееПолное имя : Otel.Eleon.Sezon03.Seriya01.2017.mp4Формат : MPEG-4Профиль формата : Base MediaИдентификатор кодека : isom (isom/iso2/avc1/mp41)Размер файла : 117 МбайтПродолжительность : 25 м. 51 с.Общий поток : 773 Кбит/секПрограмма кодирования : Lavf54.63.104

ВидеоИдентификатор : 1Формат : AVCФормат/Информация : Advanced Video CodecПрофиль формата : [email protected]Настройки формата : CABAC / 2 Ref FramesПараметр CABAC формата : ДаПараметр RefFrames формата : 2 кадраИдентификатор кодека : avc1Идентификатор кодека/Информация : Advanced Video CodingПродолжительность : 25 м. 51 с.Битрейт : 672 Кбит/секШирина : 640 пикселейВысота : 360 пикселейСоотношение сторон : 16:9Режим частоты кадров : ПостоянныйЧастота кадров : 25,000 кадров/секЦветовое пространство : YUVСубдискретизация насыщенности : 4:2:0Битовая глубина : 8 битТип развёртки : ПрогрессивнаяБит/(Пиксели*Кадры) : 0.092Размер потока : 98,1 Мбайт (84%)Библиотека кодирования : x264 core 129

АудиоИдентификатор : 2Формат : AACФормат/Информация : Advanced Audio CodecПрофиль формата : LCИдентификатор кодека : mp4a-40-2Продолжительность : 25 м. 51 с.Duration_FirstFrame : 70 мс.Вид битрейта : ПостоянныйБитрейт : 96,0 Кбит/секКаналы : 2 каналаРасположение каналов : Front: L RЧастота : 44,1 КГцЧастота кадров : 43,066 кадра/сек (1024 SPF)Метод сжатия : С потерямиРазмер потока : 17,8 Мбайт (15%)Default : ДаAlternateGroup/String : 1
Торрент обновлен. Заменены 1,2 Добавлены 3,4,5 серии.

Трекер:  [ 08-Дек-2017 00:12 ]

  

Скачать .torrent

Размер .torrent файла 33 KB


Размер: 817 MB
Хэш (hash) релиза: e09808f86a0ccf844d0c5b90ecb5c116f81c57ac

Еще никто не оставлял запись к записи скачать торрент [SERIAL] Отель Элеон Сезон: 3 . Будь первым!

!Обратная связь