Die Baumhaus Profis | Proyecto Conejo Blanco | Download

Скачать через торрент музыку Сол Бьянка: Сокровища погибших планет Sol Bianca: The Legacy бесплатно без регистрации torrent

Статистика раздачи
Размер:  454 MB   |    Зарегистрирован:  7 месяцев   |    .torrent скачан:  7 раз   |   
Раздают:  1  
   
загрузка...
 
Автор Сообщение

Galfimbul

avatar Galfimbul


Сол Бьянка: Сокровища погибших планет / Sol Bianca: The Legacy

Название альбома: Sol Bianca Extrana
Жанр: Score
Композитор: Seikou Nagaoka
Год выпуска диска: 1999
Страна-производитель диска: Япония
Издатель (лейбл): Pioneer
Номер по каталогу: PICA-1198
Аудиокодек: FLAC (*.flac)
Тип рипа: tracks+.cue
Битрейт аудио: lossless
Продолжительность: 1:06:37
Источник: собственный рип
Наличие сканов в содержимом раздачи: да
Треклист:
01 - Prologue
02 - Ship of the Sun ~Sol Bianca~
03 - Space Pirate Sol Bianca
04 - Terra force vs. Escorial
05 - Flee
06 - Battle
07 - Trap
08 - Booster John
09 - Club Gargoyle
10 - Paashii
11 - Destiny
12 - Remembrance
13 - Rescue
14 - Desperate Situation
15 - Alone
16 - hanarete yuku kokoro
17 - You're Not All Alone
18 - Transformation
19 - Darkened Sun
20 - To Be Free
21 - To Earth
Exact Audio Copy V1.1 from 23. June 2015

EAC extraction logfile from 23. July 2015, 0:40

Seikou Nagaoka / Sol Bianca: Extrana / Barco Del Sol

Used drive : HL-DT-STDVDRAM GP50NB41 Adapter: 1 ID: 0

Read mode : SecureUtilize accurate stream : YesDefeat audio cache : YesMake use of C2 pointers : No

Read offset correction : 6Overread into Lead-In and Lead-Out : NoFill up missing offset samples with silence : YesDelete leading and trailing silent blocks : NoNull samples used in CRC calculations : YesUsed interface : Native Win32 interface for Win NT & 2000Gap handling : Appended to previous track

Used output format : User Defined EncoderSelected bitrate : 768 kBit/sQuality : HighAdd ID3 tag : NoCommand line compressor : C:\Program Files (x86)\Exact Audio Copy\FLAC\FLAC.EXEAdditional command line options : -8 -V -T "ARTIST=%artist%" -T "TITLE=%title%" -T "ALBUM=%albumtitle%" -T "DATE=%year%" -T "TRACKNUMBER=%tracknr%" -T "GENRE=%genre%" -T "COMMENT=%comment%" -T "BAND=%albuminterpret%" -T "ALBUMARTIST=%albuminterpret%" -T "COMPOSER=%composer%" %haslyrics%--tag-from-file=LYRICS="%lyricsfile%"%haslyrics% -T "DISCNUMBER=%cdnumber%" -T "TOTALDISCS=%totalcds%" -T "TOTALTRACKS=%numtracks%" %hascover%--picture="%coverfile%"%hascover% %source% -o %dest%

TOC of the extracted CD

Track | Start | Length | Start sector | End sector --------------------------------------------------------- 1 | 0:00.00 | 3:09.60 | 0 | 14234 2 | 3:09.60 | 3:09.70 | 14235 | 28479 3 | 6:19.55 | 3:30.00 | 28480 | 44229 4 | 9:49.55 | 2:06.47 | 44230 | 53726 5 | 11:56.27 | 2:14.48 | 53727 | 63824 6 | 14:11.00 | 2:49.57 | 63825 | 76556 7 | 17:00.57 | 2:38.45 | 76557 | 88451 8 | 19:39.27 | 2:27.73 | 88452 | 99549 9 | 22:07.25 | 4:42.02 | 99550 | 120701 10 | 26:49.27 | 2:05.53 | 120702 | 130129 11 | 28:55.05 | 2:20.22 | 130130 | 140651 12 | 31:15.27 | 2:35.58 | 140652 | 152334 13 | 33:51.10 | 2:39.32 | 152335 | 164291 14 | 36:30.42 | 3:21.38 | 164292 | 179404 15 | 39:52.05 | 2:37.15 | 179405 | 191194 16 | 42:29.20 | 2:45.15 | 191195 | 203584 17 | 45:14.35 | 5:58.47 | 203585 | 230481 18 | 51:13.07 | 3:12.13 | 230482 | 244894 19 | 54:25.20 | 3:44.55 | 244895 | 261749 20 | 58:10.00 | 6:09.05 | 261750 | 289429 21 | 64:19.05 | 2:48.42 | 289430 | 302071

Track 1

Filename C:\Sol Bianca Extrana\01 - Prologue.wav

Pre-gap length 0:00:02.00

Peak level 97.9 % Extraction speed 1.1 X Track quality 100.0 % Test CRC 3B38D0DF Copy CRC 3B38D0DF Accurately ripped (confidence 1) [B973BA50] (AR v2) Copy OK

Track 2

Filename C:\Sol Bianca Extrana\02 - Ship of the Sun ~Sol Bianca~.wav

Pre-gap length 0:00:01.55

Peak level 97.9 % Extraction speed 1.2 X Track quality 100.0 % Test CRC E7D72363 Copy CRC E7D72363 Accurately ripped (confidence 1) [3E24935B] (AR v2) Copy OK

Track 3

Filename C:\Sol Bianca Extrana\03 - Space Pirate Sol Bianca.wav

Pre-gap length 0:00:01.23

Peak level 97.9 % Extraction speed 1.3 X Track quality 100.0 % Test CRC B252ACBD Copy CRC B252ACBD Accurately ripped (confidence 1) [355774A4] (AR v2) Copy OK

Track 4

Filename C:\Sol Bianca Extrana\04 - Terra force vs. Escorial.wav

Pre-gap length 0:00:01.18

Peak level 97.9 % Extraction speed 1.3 X Track quality 100.0 % Test CRC EE731CC8 Copy CRC EE731CC8 Accurately ripped (confidence 1) [E65D484B] (AR v2) Copy OK

Track 5

Filename C:\Sol Bianca Extrana\05 - Flee.wav

Pre-gap length 0:00:01.32

Peak level 97.9 % Extraction speed 1.4 X Track quality 100.0 % Test CRC 6351F627 Copy CRC 6351F627 Accurately ripped (confidence 1) [CB8CBB7E] (AR v2) Copy OK

Track 6

Filename C:\Sol Bianca Extrana\06 - Battle.wav

Pre-gap length 0:00:01.48

Peak level 97.9 % Extraction speed 1.4 X Track quality 100.0 % Test CRC 192C0249 Copy CRC 192C0249 Accurately ripped (confidence 1) [96B5DEEC] (AR v2) Copy OK

Track 7

Filename C:\Sol Bianca Extrana\07 - Trap.wav

Pre-gap length 0:00:01.15

Peak level 97.9 % Extraction speed 1.5 X Track quality 100.0 % Test CRC 2483F915 Copy CRC 2483F915 Accurately ripped (confidence 1) [8105ECD2] (AR v2) Copy OK

Track 8

Filename C:\Sol Bianca Extrana\08 - Booster John.wav

Pre-gap length 0:00:02.40

Peak level 97.9 % Extraction speed 1.5 X Track quality 100.0 % Test CRC A064A4F4 Copy CRC A064A4F4 Accurately ripped (confidence 1) [1F41D3F2] (AR v2) Copy OK

Track 9

Filename C:\Sol Bianca Extrana\09 - Club Gargoyle.wav

Pre-gap length 0:00:01.28

Peak level 97.9 % Extraction speed 1.8 X Track quality 100.0 % Test CRC FB218C16 Copy CRC FB218C16 Accurately ripped (confidence 1) [7B2A0E3D] (AR v2) Copy OK

Track 10

Filename C:\Sol Bianca Extrana\10 - Paashii.wav

Peak level 97.9 % Extraction speed 1.6 X Track quality 100.0 % Test CRC 47785520 Copy CRC 47785520 Accurately ripped (confidence 1) [B8406CEC] (AR v2) Copy OK

Track 11

Filename C:\Sol Bianca Extrana\11 - Destiny.wav

Pre-gap length 0:00:02.23

Peak level 97.9 % Extraction speed 1.7 X Track quality 100.0 % Test CRC DE4F8CE5 Copy CRC DE4F8CE5 Accurately ripped (confidence 1) [432E52F9] (AR v2) Copy OK

Track 12

Filename C:\Sol Bianca Extrana\12 - Remembrance.wav

Pre-gap length 0:00:01.20

Peak level 96.1 % Extraction speed 1.8 X Track quality 100.0 % Test CRC A43CFA96 Copy CRC A43CFA96 Accurately ripped (confidence 1) [4F09C6B6] (AR v2) Copy OK

Track 13

Filename C:\Sol Bianca Extrana\13 - Rescue.wav

Pre-gap length 0:00:02.28

Peak level 97.9 % Extraction speed 1.9 X Track quality 100.0 % Test CRC 853A69F9 Copy CRC 853A69F9 Accurately ripped (confidence 1) [ACA106E7] (AR v2) Copy OK

Track 14

Filename C:\Sol Bianca Extrana\14 - Desperate Situation.wav

Pre-gap length 0:00:01.30

Peak level 97.9 % Extraction speed 1.7 X Track quality 99.9 % Test CRC 03F73CC6 Copy CRC 03F73CC6 Accurately ripped (confidence 1) [D1B3E8F7] (AR v2) Copy OK

Track 15

Filename C:\Sol Bianca Extrana\15 - Alone.wav

Pre-gap length 0:00:02.33

Peak level 97.9 % Extraction speed 2.0 X Track quality 100.0 % Test CRC E72E7BA6 Copy CRC E72E7BA6 Accurately ripped (confidence 1) [AC1B372C] (AR v2) Copy OK

Track 16

Filename C:\Sol Bianca Extrana\16 - hanarete yuku kokoro.wav

Peak level 97.9 % Extraction speed 2.0 X Track quality 100.0 % Test CRC E9354E87 Copy CRC E9354E87 Accurately ripped (confidence 1) [59A84AAF] (AR v2) Copy OK

Track 17

Filename C:\Sol Bianca Extrana\17 - You're Not All Alone.wav

Pre-gap length 0:00:01.38

Peak level 97.9 % Extraction speed 2.3 X Track quality 100.0 % Test CRC 3C864B58 Copy CRC 3C864B58 Accurately ripped (confidence 1) [2FC4B019] (AR v2) Copy OK

Track 18

Filename C:\Sol Bianca Extrana\18 - Transformation.wav

Pre-gap length 0:00:01.55

Peak level 97.9 % Extraction speed 2.2 X Track quality 100.0 % Test CRC 1041F149 Copy CRC 1041F149 Accurately ripped (confidence 1) [C190AF64] (AR v2) Copy OK

Track 19

Filename C:\Sol Bianca Extrana\19 - Darkened Sun.wav

Pre-gap length 0:00:01.25

Peak level 97.9 % Extraction speed 2.0 X Track quality 99.9 % Test CRC B7E6E58D Copy CRC B7E6E58D Accurately ripped (confidence 1) [F292C66A] (AR v2) Copy OK

Track 20

Filename C:\Sol Bianca Extrana\20 - To Be Free.wav

Pre-gap length 0:00:01.65

Peak level 97.9 % Extraction speed 2.6 X Track quality 100.0 % Test CRC 561692EE Copy CRC 561692EE Accurately ripped (confidence 1) [19399908] (AR v2) Copy OK

Track 21

Filename C:\Sol Bianca Extrana\21 - To Earth.wav

Pre-gap length 0:00:01.43

Peak level 97.9 % Extraction speed 2.4 X Track quality 100.0 % Test CRC AC6D37E3 Copy CRC AC6D37E3 Accurately ripped (confidence 1) [E8CEE74C] (AR v2) Copy OK

All tracks accurately ripped

No errors occurred

End of status report

---- CUETools DB Plugin V2.1.6

[CTDB TOCID: 8OuDfmS8DEoaiNvvsb6EycJQFPc-] foundSubmit result: 8OuDfmS8DEoaiNvvsb6EycJQFPc- has been confirmedTrack | CTDB Status 1 | (3/3) Accurately ripped 2 | (3/3) Accurately ripped 3 | (3/3) Accurately ripped 4 | (3/3) Accurately ripped 5 | (3/3) Accurately ripped 6 | (3/3) Accurately ripped 7 | (3/3) Accurately ripped 8 | (3/3) Accurately ripped 9 | (3/3) Accurately ripped 10 | (3/3) Accurately ripped 11 | (3/3) Accurately ripped 12 | (3/3) Accurately ripped 13 | (3/3) Accurately ripped 14 | (3/3) Accurately ripped 15 | (3/3) Accurately ripped 16 | (3/3) Accurately ripped 17 | (3/3) Accurately ripped 18 | (3/3) Accurately ripped 19 | (3/3) Accurately ripped 20 | (3/3) Accurately ripped 21 | (3/3) Accurately ripped

==== Log checksum 2711BB14BD34E0638F1CE32676EFD53159A616B865B5ABA95F7736EF43D1D2D9 ====
REM GENRE SoundtrackREM DATE 1999REM DISCID 240FBB15REM COMMENT "ExactAudioCopy v1.1"PERFORMER "Seikou Nagaoka"TITLE "Sol Bianca: Extrana / Barco Del Sol"FILE "01 - Prologue.wav" WAVE TRACK 01 AUDIO TITLE "Prologue" PERFORMER "...." INDEX 01 00:00:00 TRACK 02 AUDIO TITLE "Ship of the Sun ~Sol Bianca~" PERFORMER "...." INDEX 00 03:08:05FILE "02 - Ship of the Sun ~Sol Bianca~.wav" WAVE INDEX 01 00:00:00 TRACK 03 AUDIO TITLE "Space Pirate Sol Bianca" PERFORMER "...." INDEX 00 03:08:47FILE "03 - Space Pirate Sol Bianca.wav" WAVE INDEX 01 00:00:00 TRACK 04 AUDIO TITLE "Terra force vs. Escorial" PERFORMER "...." INDEX 00 03:28:57FILE "04 - Terra force vs. Escorial.wav" WAVE INDEX 01 00:00:00 TRACK 05 AUDIO TITLE "Flee" PERFORMER "...." INDEX 00 02:05:15FILE "05 - Flee.wav" WAVE INDEX 01 00:00:00 TRACK 06 AUDIO TITLE "Battle" PERFORMER "...." INDEX 00 02:13:00FILE "06 - Battle.wav" WAVE INDEX 01 00:00:00 TRACK 07 AUDIO TITLE "Trap" PERFORMER "...." INDEX 00 02:48:42FILE "07 - Trap.wav" WAVE INDEX 01 00:00:00 TRACK 08 AUDIO TITLE "Booster John" PERFORMER "...." INDEX 00 02:36:05FILE "08 - Booster John.wav" WAVE INDEX 01 00:00:00 TRACK 09 AUDIO TITLE "Club Gargoyle" PERFORMER "...." INDEX 00 02:26:45FILE "09 - Club Gargoyle.wav" WAVE INDEX 01 00:00:00FILE "10 - Paashii.wav" WAVE TRACK 10 AUDIO TITLE "Paashii" PERFORMER "...." INDEX 01 00:00:00 TRACK 11 AUDIO TITLE "Destiny" PERFORMER "...." INDEX 00 02:03:30FILE "11 - Destiny.wav" WAVE INDEX 01 00:00:00 TRACK 12 AUDIO TITLE "Remembrance" PERFORMER "...." INDEX 00 02:19:02FILE "12 - Remembrance.wav" WAVE INDEX 01 00:00:00 TRACK 13 AUDIO TITLE "Rescue" PERFORMER "...." INDEX 00 02:33:30FILE "13 - Rescue.wav" WAVE INDEX 01 00:00:00 TRACK 14 AUDIO TITLE "Desperate Situation" PERFORMER "...." INDEX 00 02:38:02FILE "14 - Desperate Situation.wav" WAVE INDEX 01 00:00:00 TRACK 15 AUDIO TITLE "Alone" PERFORMER "...." INDEX 00 03:19:05FILE "15 - Alone.wav" WAVE INDEX 01 00:00:00FILE "16 - hanarete yuku kokoro.wav" WAVE TRACK 16 AUDIO TITLE "hanarete yuku kokoro" PERFORMER "...." INDEX 01 00:00:00 TRACK 17 AUDIO TITLE "You're Not All Alone" PERFORMER "Kyrie" INDEX 00 02:43:52FILE "17 - You're Not All Alone.wav" WAVE INDEX 01 00:00:00 TRACK 18 AUDIO TITLE "Transformation" PERFORMER "...." INDEX 00 05:56:67FILE "18 - Transformation.wav" WAVE INDEX 01 00:00:00 TRACK 19 AUDIO TITLE "Darkened Sun" PERFORMER "...." INDEX 00 03:10:63FILE "19 - Darkened Sun.wav" WAVE INDEX 01 00:00:00 TRACK 20 AUDIO TITLE "To Be Free" PERFORMER "Stella Furst" INDEX 00 03:42:65FILE "20 - To Be Free.wav" WAVE INDEX 01 00:00:00 TRACK 21 AUDIO TITLE "To Earth" PERFORMER "...." INDEX 00 06:07:37FILE "21 - To Earth.wav" WAVE INDEX 01 00:00:00


Трекер:  [ 06-Дек-2017 00:12 ]

  

Скачать .torrent

Размер .torrent файла 38 KB


Размер: 454 MB
Хэш (hash) релиза: 8d6442dda4fed504048178da51cd5c77d8565a57

Еще никто не оставлял запись к записи скачать торрент Сол Бьянка: Сокровища погибших планет Sol Bianca: The Legacy . Будь первым!

!Обратная связь