Ferramentas | The First Day season 07 episode 16 | Power - Saison 5

Скачать через торрент Gustav Adolfs Page Паж Густава Адольфа бесплатно русская версия torrent активатор

Статистика раздачи
Размер:  619 MB   |    Зарегистрирован:  7 месяцев   |    .torrent скачан:  6 раз   |   
Раздают:  1  
   
загрузка...
 
Автор Сообщение

Galfimbul

avatar Galfimbul


Gustav Adolfs Page / Паж Густава Адольфа

Страна: Германия, Австрия
Жанр: Приключения, костюмированный, экранизация
Год выпуска: 1960
Продолжительность: 01:30:04

Перевод: Одноголосый закадровый SATKUR
Субтитры: нет
Оригинальная аудиодорожка: нет

Режиссер: Рольф Гансен / Rolf Hansen

В ролях: Лизелотте Пульвер
Курд Юргенс
Эллен Швирс
Вальтер Райер
Гельмут Шмид
Ганс Нилсен
Эдди Арент
Пауль Бёс
Лина Карстенс
Вера Комплойер

Описание: Густл Лойбельфинг, дочь бургамистра Нюрнберга, обожает шведского короля. Когда то в детстве он поцеловал ее. Поэтому она счастливо заменяет своего брата, которого король назначил своим новым пажом. Однако король об этом не знает и думает, что что его новый паж юноша, сын бургамистра, но никак не девушка...

Доп. информация: Перевод с немецкого и озвучивание фильма сделано SATKUR, фильм для перевода предоставила Larisa547

Сэмпл: http://multi-up.com/1178299

Качество видео: DVDRip
Формат видео: AVI

Видео: 336x208 (1:615), 25.000 fps, XviD 739 kbps, 0.434 bit/pixe
Аудио: 48 kHz, AC3 Dolby Digital, 2/0 (L,R) ch, ~192.00 kbps - русский
ОбщееПолное имя : D:\FILM\F-2017\Паж Густава Адольфа 1960\Gustav.Adolfs.Page.1960.[vo.Satkur].AC3.Rus.aviФормат : AVIФормат/Информация : Audio Video InterleaveРазмер файла : 619 МбайтПродолжительность : 1 ч. 30 м.Общий поток : 961 Кбит/секПрограмма кодирования : VirtualDubModRus 1.5.10.2 (build 2542/release)Библиотека кодирования : VirtualDubMod build 2542/release

ВидеоИдентификатор : 0Формат : MPEG-4 VisualПрофиль формата : Advanced [email protected]Параметр BVOP формата : 1Параметр QPel формата : НетПараметр GMC формата : Без точки переходаПараметр матрицы формата : Default (H.263)Режим смешивания : Сжатый битовый потокИдентификатор кодека : XVIDИдентификатор кодека/Подсказка : XviDПродолжительность : 1 ч. 30 м.Битрейт : 759 Кбит/секШирина : 336 пикселейВысота : 208 пикселейСоотношение сторон : 1,615Частота кадров : 25,000 кадров/секЦветовое пространство : YUVСубдискретизация насыщенности : 4:2:0Битовая глубина : 8 битТип развёртки : ПрогрессивнаяМетод сжатия : С потерямиБит/(Пиксели*Кадры) : 0.434Размер потока : 489 Мбайт (79%)Библиотека кодирования : XviD 1.2.0.dev47 (UTC 2006-11-01)

АудиоИдентификатор : 1Формат : AC-3Формат/Информация : Audio Coding 3Расширение режима : CM (complete main)Параметр Endianness формата : BigИдентификатор кодека : 2000Продолжительность : 1 ч. 30 м.Вид битрейта : ПостоянныйБитрейт : 192 Кбит/секКаналы : 2 каналаРасположение каналов : Front: L RЧастота : 48,0 КГцБитовая глубина : 16 битМетод сжатия : С потерямиРазмер потока : 124 Мбайт (20%)Выравнивание : Разделение по промежуткамПродолжительность промежутка : 40 мс. (1,00 видеокадр)Время предзагрузки промежутка : 500 мс.


Трекер:  [ 01-Дек-2017 22:12 ]

  

Скачать .torrent

Размер .torrent файла 12 KB


Размер: 619 MB
Хэш (hash) релиза: b35173f4b0ec13743020dbf299f84e4a66e23e00

Еще никто не оставлял запись к записи скачать торрент Gustav Adolfs Page Паж Густава Адольфа . Будь первым!

!Обратная связь