Przygody Jackie Chana / Jackie Chan Adventures | Eps1 [18+] X (2011) | Carter Hastings

Скачать порно через торрент [Pantyamateur.com Satinsilkfun.com] Megapack x272 UnionPeer.org бесплатно онлайн HD качество

Скачать новое порно 2015, 2014 новинки через торрент UnionPeer.org

Порно торрент бесплатно ЮнионПир.орг

Статистика раздачи
Размер:  42.01 GB   |    Зарегистрирован:  7 месяцев   |    .torrent скачан:  206 раз   |   
Раздают:  1  
   
загрузка...
 
Автор Сообщение

Galfimbul

avatar Galfimbul


[Pantyamateur.com Satinsilkfun.com] Megapack x272 960,1080p,4k Год производства: 2017 г.
Жанр: Solo Fetish
Студия: Pantyamateur.com Satinsilkfun.com

Описание: http://satinsilkfun.com/

Тип HD видео: 1080p
Качество видео: WEB-DL
Формат видео: WMV
Видео: Windows Media Video 9 1920x1080 25.00fps 8085Kbps
Аудио: Windows Media Audio Stereo 440 kbps, 44 kHz
SSF_829_Jess_G.hd.mp4
Format : MPEG-4
Format profile : Base Media / Version 2
Codec ID : mp42 (mp42/mp41)
File size : 445 MiB
Duration : 3mn 58s
Overall bit rate mode : Variable
Overall bit rate : 15.7 Mbps
Encoded date : UTC 2016-11-08 17:14:58
Tagged date : UTC 2016-11-08 17:15:09
©TIM : 00:00:00:00
©TSC : 25
©TSZ : 1

Video
ID : 1
Format : AVC
Format/Info : Advanced Video Codec
Format profile : [email protected]
Format settings, CABAC : Yes
Format settings, ReFrames : 3 frames
Format settings, GOP : M=3, N=25
Codec ID : avc1
Codec ID/Info : Advanced Video Coding
Duration : 3mn 58s
Bit rate mode : Variable
Bit rate : 15.4 Mbps
Maximum bit rate : 20.0 Mbps
Width : 3 840 pixels
Height : 2 160 pixels
Display aspect ratio : 16:9
Frame rate mode : Constant
Frame rate : 25.000 fps
Standard : PAL
Color space : YUV
Chroma subsampling : 4:2:0
Bit depth : 8 bits
Scan type : Progressive
Bits/(Pixel*Frame) : 0.074
Stream size : 436 MiB (98%)
Language : English
Encoded date : UTC 2016-11-08 17:14:58
Tagged date : UTC 2016-11-08 17:14:58
Color range : Limited
Color primaries : BT.709
Transfer characteristics : BT.709
Matrix coefficients : BT.709

Audio
ID : 2
Format : AAC
Format/Info : Advanced Audio Codec
Format profile : LC
Codec ID : 40
Duration : 3mn 58s
Source duration : 3mn 58s
Bit rate mode : Variable
Bit rate : 317 Kbps
Maximum bit rate : 413 Kbps
Channel(s) : 2 channels
Channel positions : Front: L R
Sampling rate : 48.0 KHz
Frame rate : 46.875 fps (1024 spf)
Compression mode : Lossy
Stream size : 9.00 MiB (2%)
Source stream size : 9.01 MiB (2%)
Language : English
Encoded date : UTC 2016-11-08 17:14:58
Tagged date : UTC 2016-11-08 17:14:58
SSF_756_FionaJane.wmv
Format : Windows Media
File size : 337 MiB
Duration : 5mn 36s
Overall bit rate mode : Variable
Overall bit rate : 8 391 Kbps
Maximum Overall bit rate : 10.5 Mbps
Encoded date : UTC 2015-12-03 19:29:23.993

Video
ID : 2
Format : VC-1
Format profile : [email protected]
Codec ID : WMV3
Codec ID/Info : Windows Media Video 9
Codec ID/Hint : WMV3
Description of the codec : Windows Media Video 9 - Professional
Duration : 5mn 36s
Bit rate mode : Variable
Bit rate : 8 000 Kbps
Width : 1 920 pixels
Height : 1 080 pixels
Display aspect ratio : 16:9
Frame rate : 25.000 fps
Bit depth : 8 bits
Compression mode : Lossy
Bits/(Pixel*Frame) : 0.154
Stream size : 321 MiB (95%)
Language : English (GB)
NumberOfFrames : 8404

Audio
ID : 1
Format : WMA
Format profile : Pro
Codec ID : 162
Codec ID/Info : Windows Media Audio
Description of the codec : Windows Media Audio 10 Professional - 440 kbps, 44 kHz, 2 channel 24 bit 2-pass VBR
Duration : 5mn 36s
Bit rate mode : Variable
Bit rate : 405 Kbps
Channel(s) : 2 channels
Sampling rate : 44.1 KHz
Bit depth : 24 bits
Stream size : 16.3 MiB (5%)
Language : English (GB)
NumberOfFrames : 831
SSF_530_Hannah_Claydon.wmv
Format : Windows Media
File size : 66.4 MiB
Duration : 3mn 51s
Overall bit rate mode : Variable
Overall bit rate : 2 405 Kbps
Maximum Overall bit rate : 4 441 Kbps
Encoded date : UTC 2012-12-11 18:36:32.639

Video
ID : 2
Format : VC-1
Format profile : [email protected]
Codec ID : WMV3
Codec ID/Info : Windows Media Video 9
Codec ID/Hint : WMV3
Description of the codec : Windows Media Video 9 - Professional
Bit rate mode : Variable
Bit rate : 2 000 Kbps
Width : 960 pixels
Height : 544 pixels
Display aspect ratio : 16:9
Frame rate mode : Variable
Nominal frame rate : 25.000 fps
Color space : YUV
Chroma subsampling : 4:2:0
Bit depth : 8 bits
Scan type : Progressive
Compression mode : Lossy
NumberOfFrames : 5775

Audio
ID : 1
Format : WMA
Format profile : Pro
Codec ID : 162
Codec ID/Info : Windows Media Audio
Description of the codec : Windows Media Audio 10 Professional - 440 kbps, 44 kHz, 2 channel 24 bit 2-pass VBR
Duration : 3mn 51s
Bit rate mode : Variable
Bit rate : 405 Kbps
Channel(s) : 2 channels
Sampling rate : 44.1 KHz
Bit depth : 24 bits
Stream size : 11.2 MiB (17%)
NumberOfFrames : 571


Трекер:  [ 24-Ноя-2017 14:10 ]

  

Скачать .torrent

Размер .torrent файла 227 KB


Размер: 42.01 GB
Хэш (hash) релиза: ce4ff86d3168b190e63804f5567a1fbdb7a626d1

Еще никто не оставлял запись к записи скачать торрент [Pantyamateur.com Satinsilkfun.com] Megapack x272 . Будь первым!

!Обратная связь